<?xml version="1.0" standalone="no"?>
<!DOCTYPE svg PUBLIC "-//W3C//DTD SVG 1.1//EN" "http://www.w3.org/Graphics/SVG/1.1/DTD/svg11.dtd" >
<svg xmlns="http://www.w3.org/2000/svg" xmlns:xlink="http://www.w3.org/1999/xlink" version="1.1">
<metadata>
Created by FontForge 20190801 at Thu Dec 22 16:09:29 2022
 By root
Copyright (c) 2014 by Mattox Shuler. All rights reserved.
</metadata>
<defs>
<font id="Industry-Bold" horiz-adv-x="581" >
  <font-face 
    font-family="Industry Test Bold"
    font-weight="700"
    font-stretch="normal"
    units-per-em="1000"
    panose-1="0 0 8 0 0 0 0 0 0 0"
    ascent="800"
    descent="-200"
    x-height="540"
    cap-height="700"
    bbox="-32 -180 910 730"
    underline-thickness="50"
    underline-position="-100"
    stemh="132"
    stemv="144"
    unicode-range="U+0020-007A"
  />
<missing-glyph horiz-adv-x="312" 
 />
    <glyph glyph-name=".notdef" horiz-adv-x="312" 
 />
    <glyph glyph-name="A" unicode="A" horiz-adv-x="668" 
d="M451 152h-240l-43 -152h-152l213 700h210l213 -700h-158zM414 284l-83 294l-83 -294h166z" />
    <glyph glyph-name="B" unicode="B" horiz-adv-x="643" 
d="M79 700h366c95 0 140 -45 140 -187c0 -94 -17 -130 -63 -155c50 -22 71 -61 71 -163c0 -150 -45 -195 -140 -195h-374v700zM223 420h198c15 0 20 5 20 75s-5 75 -20 75h-198v-150zM223 130h206c15 0 20 5 20 83s-5 83 -20 83h-206v-166z" />
    <glyph glyph-name="C" unicode="C" horiz-adv-x="623" 
d="M434 0h-232c-95 0 -140 45 -140 140v420c0 95 45 140 140 140h232c95 0 140 -45 140 -140v-114h-144v102c0 15 -5 20 -20 20h-184c-15 0 -20 -5 -20 -20v-396c0 -15 5 -20 20 -20h184c15 0 20 5 20 20v102h144v-114c0 -95 -45 -140 -140 -140z" />
    <glyph glyph-name="D" unicode="D" horiz-adv-x="664" 
d="M79 700h383c95 0 140 -45 140 -140v-420c0 -95 -45 -140 -140 -140h-383v700zM223 132h215c15 0 20 5 20 20v396c0 15 -5 20 -20 20h-215v-436z" />
    <glyph glyph-name="E" unicode="E" horiz-adv-x="598" 
d="M79 700h471v-132h-327v-145h265v-130h-265v-161h327v-132h-471v700z" />
    <glyph glyph-name="F" unicode="F" horiz-adv-x="580" 
d="M79 0v700h471v-132h-327v-151h265v-130h-265v-287h-144z" />
    <glyph glyph-name="G" unicode="G" horiz-adv-x="642" 
d="M439 468v80c0 15 -5 20 -20 20h-193c-15 0 -20 -5 -20 -20v-396c0 -15 5 -20 20 -20h193c15 0 20 5 20 20v108h-132v126h276v-246c0 -95 -45 -140 -140 -140h-241c-95 0 -140 45 -140 140v420c0 95 45 140 140 140h241c95 0 140 -45 140 -140v-92h-144z" />
    <glyph glyph-name="H" unicode="H" horiz-adv-x="694" 
d="M79 0v700h144v-276h248v276h144v-700h-144v292h-248v-292h-144z" />
    <glyph glyph-name="I" unicode="I" horiz-adv-x="302" 
d="M79 0v700h144v-700h-144z" />
    <glyph glyph-name="J" unicode="J" horiz-adv-x="572" 
d="M500 700v-560c0 -95 -45 -140 -140 -140h-193c-95 0 -140 45 -140 140v156h144v-144c0 -15 5 -20 20 -20h145c15 0 20 5 20 20v548h144z" />
    <glyph glyph-name="K" unicode="K" horiz-adv-x="659" 
d="M488 0l-165 303l-102 -129v-174h-142v700h142v-328l249 328h169l-219 -276l230 -424h-162z" />
    <glyph glyph-name="L" unicode="L" horiz-adv-x="555" 
d="M79 700h144v-568h302v-132h-446v700z" />
    <glyph glyph-name="M" unicode="M" horiz-adv-x="846" 
d="M767 700v-700h-142v446l-151 -353h-106l-151 353v-446h-138v700h158l186 -412l186 412h158z" />
    <glyph glyph-name="N" unicode="N" horiz-adv-x="713" 
d="M494 700h140v-700h-140l-275 467v-467h-140v700h150l265 -451v451z" />
    <glyph glyph-name="O" unicode="O" horiz-adv-x="661" 
d="M459 0h-257c-95 0 -140 45 -140 140v420c0 95 45 140 140 140h257c95 0 140 -45 140 -140v-420c0 -95 -45 -140 -140 -140zM206 548v-396c0 -15 5 -20 20 -20h209c15 0 20 5 20 20v396c0 15 -5 20 -20 20h-209c-15 0 -20 -5 -20 -20z" />
    <glyph glyph-name="P" unicode="P" horiz-adv-x="626" 
d="M79 700h370c95 0 140 -45 140 -140v-186c0 -95 -45 -140 -140 -140h-226v-234h-144v700zM223 366h202c15 0 20 5 20 20v162c0 15 -5 20 -20 20h-202v-202z" />
    <glyph glyph-name="Q" unicode="Q" horiz-adv-x="649" 
d="M202 700h245c95 0 140 -45 140 -140v-420c0 -95 -45 -140 -140 -140h-50v-128h-144v128h-51c-95 0 -140 45 -140 140v420c0 95 45 140 140 140zM443 152v396c0 15 -5 20 -20 20h-197c-15 0 -20 -5 -20 -20v-396c0 -15 5 -20 20 -20h197c15 0 20 5 20 20z" />
    <glyph glyph-name="R" unicode="R" horiz-adv-x="650" 
d="M610 0h-155l-116 247h-116v-247h-144v700h369c95 0 140 -45 140 -140v-169c0 -79 -31 -124 -97 -136zM223 375h201c15 0 20 5 20 20v155c0 15 -5 20 -20 20h-201v-195z" />
    <glyph glyph-name="S" unicode="S" horiz-adv-x="626" 
d="M416 480v70c0 15 -5 20 -20 20h-172c-15 0 -20 -5 -20 -20v-76c0 -22 8 -28 34 -34l186 -40c88 -19 144 -54 144 -144v-116c0 -95 -45 -140 -140 -140h-230c-95 0 -140 45 -140 140v88h140v-78c0 -15 5 -20 20 -20h186c15 0 20 5 20 20v84c0 22 -8 28 -34 34l-186 40
c-88 19 -144 54 -144 144v108c0 95 45 140 140 140h216c95 0 140 -45 140 -140v-80h-140z" />
    <glyph glyph-name="T" unicode="T" horiz-adv-x="574" 
d="M549 570h-190v-570h-144v570h-190v130h524v-130z" />
    <glyph glyph-name="U" unicode="U" horiz-adv-x="668" 
d="M596 700v-560c0 -95 -45 -140 -140 -140h-244c-95 0 -140 45 -140 140v560h144v-548c0 -15 5 -20 20 -20h196c15 0 20 5 20 20v548h144z" />
    <glyph glyph-name="V" unicode="V" horiz-adv-x="638" 
d="M620 700l-217 -700h-168l-217 700h158l145 -541l145 541h154z" />
    <glyph glyph-name="W" unicode="W" horiz-adv-x="928" 
d="M734 0h-152l-115 456l-115 -456h-159l-175 700h150l109 -514l129 514h122l129 -514l109 514h144z" />
    <glyph glyph-name="X" unicode="X" horiz-adv-x="632" 
d="M312 236l-143 -236h-155l218 356l-212 344h162l137 -226l138 226h155l-218 -344l224 -356h-162z" />
    <glyph glyph-name="Y" unicode="Y" horiz-adv-x="612" 
d="M378 0h-144v239l-228 461h156l145 -312l145 312h154l-228 -461v-239z" />
    <glyph glyph-name="Z" unicode="Z" horiz-adv-x="598" 
d="M46 108l328 464h-310v128h488v-108l-328 -464h326v-128h-504v108z" />
    <glyph glyph-name="a" unicode="a" horiz-adv-x="554" 
d="M190 540h174c89 0 130 -41 130 -130v-410h-138v84c-36 -50 -71 -88 -169 -88c-104 0 -145 43 -145 155c0 113 53 154 140 166c44 6 107 13 174 16v72c0 16 -6 22 -22 22h-116c-16 0 -22 -6 -22 -22v-32h-136v37c0 89 41 130 130 130zM356 245l-143 -27
c-26 -5 -35 -12 -35 -53c0 -43 6 -51 36 -51c66 0 101 20 142 42v89z" />
    <glyph glyph-name="b" unicode="b" 
d="M377 544c109 0 150 -41 150 -140v-268c0 -99 -41 -140 -150 -140c-103 0 -138 34 -174 84v-80h-138v730h138v-270c36 50 71 84 174 84zM389 152v236c0 26 -6 32 -40 32c-70 0 -105 -10 -146 -32v-236c41 -22 76 -32 146 -32c34 0 40 6 40 32z" />
    <glyph glyph-name="c" unicode="c" horiz-adv-x="531" 
d="M184 540h173c89 0 130 -41 130 -130v-68h-138v56c0 16 -6 22 -22 22h-113c-16 0 -22 -6 -22 -22v-256c0 -16 6 -22 22 -22h113c16 0 22 6 22 22v56h138v-68c0 -89 -41 -130 -130 -130h-173c-89 0 -130 41 -130 130v280c0 89 41 130 130 130z" />
    <glyph glyph-name="d" unicode="d" 
d="M204 544c103 0 138 -34 174 -84v270h138v-730h-138v80c-36 -50 -71 -84 -174 -84c-109 0 -150 41 -150 140v268c0 99 41 140 150 140zM192 388v-236c0 -26 6 -32 40 -32c70 0 105 10 146 32v236c-41 22 -76 32 -146 32c-34 0 -40 -6 -40 -32z" />
    <glyph glyph-name="e" unicode="e" horiz-adv-x="551" 
d="M192 231v-97c0 -16 6 -22 22 -22h127c16 0 22 6 22 22v42h138v-46c0 -89 -41 -130 -130 -130h-187c-89 0 -130 41 -130 130v280c0 89 41 130 130 130h187c89 0 130 -41 130 -130v-179h-309zM341 428h-127c-16 0 -22 -6 -22 -22v-82h171v82c0 16 -6 22 -22 22z" />
    <glyph glyph-name="f" unicode="f" horiz-adv-x="381" 
d="M351 626h-88c-16 0 -22 -6 -22 -22v-64h120v-116h-120v-424h-138v424h-77v116h77v60c0 89 40 130 130 130h118v-104z" />
    <glyph glyph-name="g" unicode="g" 
d="M516 540v-570c0 -89 -41 -130 -130 -130h-262v110h232c16 0 22 6 22 22v132c-36 -50 -71 -84 -174 -84c-109 0 -150 41 -150 140v244c0 99 41 140 150 140c103 0 138 -34 174 -84v80h138zM192 398v-232c0 -16 6 -22 40 -22c70 0 105 10 146 32v212c-41 22 -76 32 -146 32
c-34 0 -40 -6 -40 -22z" />
    <glyph glyph-name="h" unicode="h" horiz-adv-x="579" 
d="M203 730v-269c36 50 71 84 170 84c105 0 146 -41 146 -134v-411h-138v395c0 20 -6 26 -35 26c-67 0 -102 -10 -143 -32v-389h-138v730h138z" />
    <glyph glyph-name="i" unicode="i" horiz-adv-x="268" 
d="M207 600h-146v130h146v-130zM203 540v-540h-138v540h138z" />
    <glyph glyph-name="j" unicode="j" horiz-adv-x="268" 
d="M207 600h-146v130h146v-130zM203 540v-569c0 -85 -48 -112 -130 -129l-105 -22v92l79 42c10 5 18 12 18 24v562h138z" />
    <glyph glyph-name="k" unicode="k" horiz-adv-x="552" 
d="M394 -1l-117 224l-76 -95v-128h-136v730h136v-424l168 234h163l-168 -209l178 -331z" />
    <glyph glyph-name="l" unicode="l" horiz-adv-x="264" 
d="M63 730h138v-730h-138v730z" />
    <glyph glyph-name="m" unicode="m" horiz-adv-x="867" 
d="M665 546c101 0 142 -41 142 -134v-412h-138v396c0 20 -6 26 -31 26c-57 0 -92 -10 -133 -32v-390h-138v396c0 20 -6 26 -31 26c-57 0 -92 -10 -133 -32v-390h-138v540h138v-78c36 50 71 84 160 84c83 0 126 -28 138 -89c36 52 76 89 164 89z" />
    <glyph glyph-name="n" unicode="n" horiz-adv-x="579" 
d="M203 540v-79c36 50 71 84 170 84c105 0 146 -41 146 -134v-411h-138v395c0 20 -6 26 -35 26c-67 0 -102 -10 -143 -32v-389h-138v540h138z" />
    <glyph glyph-name="o" unicode="o" horiz-adv-x="561" 
d="M184 540h193c89 0 130 -41 130 -130v-280c0 -89 -41 -130 -130 -130h-193c-89 0 -130 41 -130 130v280c0 89 41 130 130 130zM369 142v256c0 16 -6 22 -22 22h-133c-16 0 -22 -6 -22 -22v-256c0 -16 6 -22 22 -22h133c16 0 22 6 22 22z" />
    <glyph glyph-name="p" unicode="p" 
d="M377 544c109 0 150 -41 150 -140v-268c0 -99 -41 -140 -150 -140c-103 0 -138 34 -174 84v-240h-138v700h138v-80c36 50 71 84 174 84zM389 152v236c0 26 -6 32 -40 32c-70 0 -105 -10 -146 -32v-236c41 -22 76 -32 146 -32c34 0 40 6 40 32z" />
    <glyph glyph-name="q" unicode="q" 
d="M204 544c103 0 138 -34 174 -84v80h138v-700h-138v240c-36 -50 -71 -84 -174 -84c-109 0 -150 41 -150 140v268c0 99 41 140 150 140zM192 388v-236c0 -26 6 -32 40 -32c70 0 105 10 146 32v236c-41 22 -76 32 -146 32c-34 0 -40 -6 -40 -32z" />
    <glyph glyph-name="r" unicode="r" horiz-adv-x="422" 
d="M400 410h-68c-53 0 -88 -10 -129 -32v-378h-138v540h138v-84c36 50 71 84 154 84h43v-130z" />
    <glyph glyph-name="s" unicode="s" horiz-adv-x="526" 
d="M335 370v40c0 16 -6 22 -22 22h-105c-16 0 -22 -6 -22 -41c0 -40 4 -46 30 -50l149 -24c86 -14 118 -41 118 -152c0 -124 -41 -165 -130 -165h-180c-89 0 -130 41 -130 130v49h136v-49c0 -16 6 -22 22 -22h124c16 0 22 6 22 46c0 45 -4 51 -30 55l-149 24
c-86 14 -118 41 -118 147c0 119 41 160 130 160h161c89 0 130 -41 130 -130v-40h-136z" />
    <glyph glyph-name="t" unicode="t" horiz-adv-x="386" 
d="M238 428v-292c0 -16 6 -22 22 -22h94v-114h-124c-89 0 -130 41 -130 130v298h-80v112h82v130h134v-130h118v-112h-116z" />
    <glyph glyph-name="u" unicode="u" horiz-adv-x="579" 
d="M376 0v79c-36 -50 -71 -84 -170 -84c-105 0 -146 41 -146 134v411h138v-395c0 -20 6 -26 35 -26c67 0 102 10 143 32v389h138v-540h-138z" />
    <glyph glyph-name="v" unicode="v" horiz-adv-x="536" 
d="M521 540l-177 -540h-152l-177 540h148l108 -417l108 417h142z" />
    <glyph glyph-name="w" unicode="w" horiz-adv-x="786" 
d="M630 0h-144l-88 381l-88 -381h-144l-151 540h148l74 -391l94 391h134l94 -391l74 391h138z" />
    <glyph glyph-name="x" unicode="x" horiz-adv-x="528" 
d="M259 167l-105 -167h-140l175 274l-173 266h150l101 -163l101 163h140l-172 -267l178 -273h-150z" />
    <glyph glyph-name="y" unicode="y" horiz-adv-x="544" 
d="M529 540l-243 -700h-133l52 160l-190 540h148l112 -395l112 395h142z" />
    <glyph glyph-name="z" unicode="z" horiz-adv-x="481" 
d="M32 98l244 326h-236v116h402v-96l-244 -328h251v-116h-417v98z" />
    <glyph glyph-name="zero" unicode="0" horiz-adv-x="643" 
d="M441 0h-239c-95 0 -140 45 -140 140v420c0 95 45 140 140 140h239c95 0 140 -45 140 -140v-420c0 -95 -45 -140 -140 -140zM206 548v-396c0 -15 5 -20 20 -20h191c15 0 20 5 20 20v396c0 15 -5 20 -20 20h-191c-15 0 -20 -5 -20 -20z" />
    <glyph glyph-name="one" unicode="1" horiz-adv-x="417" 
d="M181 0v550l-141 -46v120l171 76h114v-700h-144z" />
    <glyph glyph-name="two" unicode="2" horiz-adv-x="604" 
d="M206 482v66c0 15 5 20 20 20h158c15 0 20 -5 20 -20v-68c0 -26 -14 -30 -40 -40l-162 -60c-85 -31 -144 -64 -144 -144v-236h492v132h-348v72c0 26 14 30 40 40l162 60c85 31 144 64 144 144v112c0 95 -45 140 -140 140h-202c-95 0 -140 -45 -140 -140v-78h140z" />
    <glyph glyph-name="three" unicode="3" horiz-adv-x="600" 
d="M190 216v-4c0 -77 5 -82 20 -82h176c15 0 20 5 20 82s-5 82 -20 82h-167v128h159c15 0 20 5 20 74s-5 74 -20 74h-160c-15 0 -20 -5 -20 -74v-12h-144v23c0 148 45 193 140 193h208c95 0 140 -45 140 -187c0 -96 -17 -130 -63 -155c50 -22 71 -59 71 -163
c0 -150 -45 -195 -140 -195h-224c-95 0 -140 45 -140 195v21h144z" />
    <glyph glyph-name="four" unicode="4" horiz-adv-x="635" 
d="M613 144h-101v-144h-140v144h-320l-30 118l358 438h132v-428h101v-128zM198 272h174v219z" />
    <glyph glyph-name="five" unicode="5" horiz-adv-x="609" 
d="M216 568v-191c36 50 71 84 174 84c116 0 161 -45 161 -140v-177c0 -95 -49 -144 -144 -144h-205c-95 0 -140 45 -140 140v77h144v-65c0 -15 5 -20 20 -20h161c15 0 20 5 20 20v161c0 15 -5 20 -41 20c-74 0 -108 -11 -150 -33l-144 36v364h459v-132h-315z" />
    <glyph glyph-name="six" unicode="6" horiz-adv-x="619" 
d="M407 494v54c0 13 -7 20 -20 20h-161c-13 0 -20 -7 -20 -20v-190c36 50 77 84 187 84c121 0 166 -45 166 -140v-162c0 -95 -45 -140 -140 -140h-217c-95 0 -140 45 -140 140v420c0 95 45 140 140 140h209c95 0 140 -45 140 -140v-66h-144zM206 281v-129
c0 -15 5 -20 20 -20h169c15 0 20 5 20 20v142c0 15 -5 20 -47 20c-80 0 -120 -11 -162 -33z" />
    <glyph glyph-name="seven" unicode="7" horiz-adv-x="576" 
d="M544 597l-302 -597h-158l292 570h-346v130h514v-103z" />
    <glyph glyph-name="eight" unicode="8" horiz-adv-x="620" 
d="M499 358c50 -22 71 -59 71 -163c0 -150 -45 -195 -140 -195h-240c-95 0 -140 45 -140 195c0 104 21 141 71 163c-46 25 -63 59 -63 155c0 142 45 187 140 187h224c95 0 140 -45 140 -187c0 -96 -17 -130 -63 -155zM398 570h-176c-15 0 -20 -5 -20 -74s5 -74 20 -74h176
c15 0 20 5 20 74s-5 74 -20 74zM214 130h192c15 0 20 5 20 82s-5 82 -20 82h-192c-15 0 -20 -5 -20 -82s5 -82 20 -82z" />
    <glyph glyph-name="nine" unicode="9" horiz-adv-x="619" 
d="M212 206v-54c0 -13 7 -20 20 -20h161c13 0 20 7 20 20v193c-36 -50 -77 -84 -186 -84c-122 0 -167 45 -167 140v159c0 95 45 140 140 140h217c95 0 140 -45 140 -140v-420c0 -95 -45 -140 -140 -140h-209c-95 0 -140 45 -140 140v66h144zM413 422v126c0 15 -5 20 -20 20
h-169c-15 0 -20 -5 -20 -20v-139c0 -15 5 -20 47 -20c80 0 120 11 162 33z" />
    <glyph glyph-name="comma" unicode="," horiz-adv-x="250" 
d="M205 156v-108c0 -39 -13 -64 -48 -104l-69 -78h-56l77 134h-64v156h160z" />
    <glyph glyph-name="period" unicode="." horiz-adv-x="250" 
d="M205 0h-160v156h160v-156z" />
    <glyph glyph-name="hyphen" unicode="-" horiz-adv-x="442" 
d="M391 393v-128h-340v128h340z" />
    <glyph glyph-name="space" unicode=" " horiz-adv-x="240" 
 />
    </font>
</defs>
</svg>
