<?xml version="1.0" standalone="no"?>
<!DOCTYPE svg PUBLIC "-//W3C//DTD SVG 1.1//EN" "http://www.w3.org/Graphics/SVG/1.1/DTD/svg11.dtd" >
<svg xmlns="http://www.w3.org/2000/svg" xmlns:xlink="http://www.w3.org/1999/xlink" version="1.1">
<metadata>
Created by FontForge 20201107 at Thu Jun 25 18:25:40 2020
 By Unknown
Copyright 2020 The Epilogue Project Authors (https://github.com/Etcetera-Type-Co/Epilogue)
</metadata>
<defs>
<font id="Epilogue-Medium" horiz-adv-x="0" >
  <font-face 
    font-family="Epilogue Medium"
    font-weight="500"
    font-stretch="normal"
    units-per-em="2000"
    panose-1="0 0 0 0 0 0 0 0 0 0"
    ascent="1600"
    descent="-400"
    x-height="1062"
    cap-height="1475"
    bbox="-470 -467 2360 2166"
    underline-thickness="50"
    underline-position="-125"
    unicode-range="U+000D-FB02"
  />
<missing-glyph horiz-adv-x="669" 
d="M80 73v1344h509v-1344h-509zM119 107h431v1276h-431v-1276zM230 1048l-30 26l110 98l-110 98l30 25l109 -97l109 97l30 -25l-110 -98l110 -98l-30 -26l-109 98zM230 612l-30 26l109 98l-109 98l30 26l109 -98l109 98l30 -26l-109 -98l109 -98l-30 -26l-109 98zM230 176
l-30 26l109 98l-109 98l30 26l109 -98l109 98l30 -26l-109 -98l109 -98l-30 -26l-109 98z" />
    <glyph glyph-name="f_f" unicode="ff" horiz-adv-x="1665" 
d="M273 0v882h-229v180h229v116q0 138 55 226.5t146.5 131t201.5 42.5q54 0 84 -7t41 -11v-181q-12 4 -40.5 9t-62.5 5q-86 0 -131 -33t-61.5 -88t-16.5 -120v-90h302v-180h-302v-882h-216zM1105 0v882h-229v180h229v116q0 138 55 226.5t146.5 131t201.5 42.5q54 0 84 -7
t41 -11v-181q-12 4 -40.5 9t-62.5 5q-86 0 -131 -33t-61.5 -88t-16.5 -120v-90h302v-180h-302v-882h-216z" />
    <glyph glyph-name="f_f_i" unicode="ffi" horiz-adv-x="2170" 
d="M273 0v882h-229v180h229v116q0 138 55 226.5t146.5 131t201.5 42.5q54 0 84 -7t41 -11v-181q-12 4 -40.5 9t-62.5 5q-86 0 -131 -33t-61.5 -88t-16.5 -120v-90h302v-180h-302v-882h-216zM1105 0v882h-229v180h229v116q0 138 55 226.5t146.5 131t201.5 42.5q54 0 84 -7
t41 -11v-181q-12 4 -40.5 9t-62.5 5q-86 0 -131 -33t-61.5 -88t-16.5 -120v-90h302v-180h-302v-882h-216zM1918 1282q-56 0 -96.5 30.5t-40.5 84.5q0 53 40.5 83.5t96.5 30.5q55 0 95.5 -30.5t40.5 -83.5q0 -55 -40.5 -85t-95.5 -30zM1810 0v1062h214v-1062h-214z" />
    <glyph glyph-name="f_f_l" unicode="ffl" horiz-adv-x="2183" 
d="M273 0v882h-229v180h229v116q0 138 55 226.5t146.5 131t201.5 42.5q54 0 84 -7t41 -11v-181q-12 4 -40.5 9t-62.5 5q-86 0 -131 -33t-61.5 -88t-16.5 -120v-90h302v-180h-302v-882h-216zM1105 0v882h-229v180h229v116q0 138 55 226.5t146.5 131t201.5 42.5q54 0 84 -7
t41 -11v-181q-12 4 -40.5 9t-62.5 5q-86 0 -131 -33t-61.5 -88t-16.5 -120v-90h302v-180h-302v-882h-216zM2036 1563v-1563h-214v1563h214z" />
    <glyph glyph-name="fi" unicode="fi" horiz-adv-x="1337" 
d="M273 0v882h-229v180h229v116q0 138 55 226.5t146.5 131t201.5 42.5q54 0 84 -7t41 -11v-181q-12 4 -40.5 9t-62.5 5q-86 0 -131 -33t-61.5 -88t-16.5 -120v-90h302v-180h-302v-882h-216zM1085 1282q-56 0 -96.5 30.5t-40.5 84.5q0 53 40.5 83.5t96.5 30.5
q55 0 95.5 -30.5t40.5 -83.5q0 -55 -40.5 -85t-95.5 -30zM977 0v1062h214v-1062h-214z" />
    <glyph glyph-name="fl" unicode="fl" horiz-adv-x="1351" 
d="M273 0v882h-229v180h229v116q0 138 55 226.5t146.5 131t201.5 42.5q54 0 84 -7t41 -11v-181q-12 4 -40.5 9t-62.5 5q-86 0 -131 -33t-61.5 -88t-16.5 -120v-90h302v-180h-302v-882h-216zM1203 1563v-1563h-214v1563h214z" />
    <glyph glyph-name=".notdef" horiz-adv-x="669" 
d="M80 73v1344h509v-1344h-509zM119 107h431v1276h-431v-1276zM230 1048l-30 26l110 98l-110 98l30 25l109 -97l109 97l30 -25l-110 -98l110 -98l-30 -26l-109 98zM230 612l-30 26l109 98l-109 98l30 26l109 -98l109 98l30 -26l-109 -98l109 -98l-30 -26l-109 98zM230 176
l-30 26l109 98l-109 98l30 26l109 -98l109 98l30 -26l-109 -98l109 -98l-30 -26l-109 98z" />
    <glyph glyph-name="A" unicode="A" horiz-adv-x="1266" 
d="M70 0l394 1478h341l390 -1478h-223l-95 375h-488l-95 -375h-224zM435 555h397l-198 782z" />
    <glyph glyph-name="Aacute" unicode="&#xc1;" horiz-adv-x="1266" 
d="M70 0l394 1478h341l390 -1478h-223l-95 375h-488l-95 -375h-224zM435 555h397l-198 782zM496 1553l279 190h194l-297 -190h-176z" />
    <glyph glyph-name="Abreve" unicode="&#x102;" horiz-adv-x="1266" 
d="M70 0l394 1478h341l390 -1478h-223l-95 375h-488l-95 -375h-224zM435 555h397l-198 782zM377 1722h132q0 -40 33.5 -69.5t91.5 -29.5t91.5 29.5t33.5 69.5h132q0 -83 -73.5 -135.5t-183.5 -52.5t-183.5 52.5t-73.5 135.5z" />
    <glyph glyph-name="uni1EAE" unicode="&#x1eae;" horiz-adv-x="1266" 
d="M70 0l394 1478h341l390 -1478h-223l-95 375h-488l-95 -375h-224zM435 555h397l-198 782zM377 1722h132q0 -40 33.5 -69.5t91.5 -29.5t91.5 29.5t33.5 69.5h132q0 -83 -73.5 -135.5t-183.5 -52.5t-183.5 52.5t-73.5 135.5zM496 1794l279 190h194l-297 -190h-176z" />
    <glyph glyph-name="uni1EB6" unicode="&#x1eb6;" horiz-adv-x="1266" 
d="M70 0l394 1478h341l390 -1478h-223l-95 375h-488l-95 -375h-224zM435 555h397l-198 782zM633 -365q-55 0 -96 30t-41 83q0 54 41 84t96 30q54 0 95 -30t41 -84q0 -53 -41 -83t-95 -30zM377 1722h132q0 -40 33.5 -69.5t91.5 -29.5t91.5 29.5t33.5 69.5h132
q0 -83 -73.5 -135.5t-183.5 -52.5t-183.5 52.5t-73.5 135.5z" />
    <glyph glyph-name="uni1EB0" unicode="&#x1eb0;" horiz-adv-x="1266" 
d="M70 0l394 1478h341l390 -1478h-223l-95 375h-488l-95 -375h-224zM435 555h397l-198 782zM377 1722h132q0 -40 33.5 -69.5t91.5 -29.5t91.5 29.5t33.5 69.5h132q0 -83 -73.5 -135.5t-183.5 -52.5t-183.5 52.5t-73.5 135.5zM777 1794h-175l-298 190h194z" />
    <glyph glyph-name="uni1EB2" unicode="&#x1eb2;" horiz-adv-x="1266" 
d="M70 0l394 1478h341l390 -1478h-223l-95 375h-488l-95 -375h-224zM435 555h397l-198 782zM377 1722h132q0 -40 33.5 -69.5t91.5 -29.5t91.5 29.5t33.5 69.5h132q0 -83 -73.5 -135.5t-183.5 -52.5t-183.5 52.5t-73.5 135.5zM424 2018q109 0 195.5 -8.5t136.5 -35t50 -80.5
q0 -71 -76 -102.5t-177 -31.5l-25 64q34 1 73 7t66 19t27 36q0 38 -72.5 47.5t-197.5 9.5v75z" />
    <glyph glyph-name="uni1EB4" unicode="&#x1eb4;" horiz-adv-x="1266" 
d="M70 0l394 1478h341l390 -1478h-223l-95 375h-488l-95 -375h-224zM435 555h397l-198 782zM377 1722h132q0 -40 33.5 -69.5t91.5 -29.5t91.5 29.5t33.5 69.5h132q0 -83 -73.5 -135.5t-183.5 -52.5t-183.5 52.5t-73.5 135.5zM942 1967q-1 -37 -19 -79.5t-56 -72.5t-100 -30
q-47 0 -81.5 19t-58.5 38q-22 18 -45.5 32t-54.5 14q-39 0 -54 -24.5t-17 -53.5h-119q2 39 22.5 82t61 73t101.5 30q47 0 80 -18.5t56 -37.5q23 -18 47.5 -33t51.5 -15q38 0 51.5 23t14.5 53h119z" />
    <glyph glyph-name="uni01CD" unicode="&#x1cd;" horiz-adv-x="1266" 
d="M70 0l394 1478h341l390 -1478h-223l-95 375h-488l-95 -375h-224zM435 555h397l-198 782zM334 1740h151l149 -129l148 129h153l-223 -188h-156z" />
    <glyph glyph-name="Acircumflex" unicode="&#xc2;" horiz-adv-x="1266" 
d="M70 0l394 1478h341l390 -1478h-223l-95 375h-488l-95 -375h-224zM435 555h397l-198 782zM334 1552l222 188h156l223 -188h-153l-148 128l-149 -128h-151z" />
    <glyph glyph-name="uni1EA4" unicode="&#x1ea4;" horiz-adv-x="1266" 
d="M70 0l394 1478h341l390 -1478h-223l-95 375h-488l-95 -375h-224zM435 555h397l-198 782zM832 1701l219 191h164l-236 -191h-147zM333 1552l222 188h157l222 -188h-152l-148 128l-150 -128h-151z" />
    <glyph glyph-name="uni1EAC" unicode="&#x1eac;" horiz-adv-x="1266" 
d="M70 0l394 1478h341l390 -1478h-223l-95 375h-488l-95 -375h-224zM435 555h397l-198 782zM633 -365q-55 0 -96 30t-41 83q0 54 41 84t96 30q54 0 95 -30t41 -84q0 -53 -41 -83t-95 -30zM334 1552l222 188h156l223 -188h-153l-148 128l-149 -128h-151z" />
    <glyph glyph-name="uni1EA6" unicode="&#x1ea6;" horiz-adv-x="1266" 
d="M70 0l394 1478h341l390 -1478h-223l-95 375h-488l-95 -375h-224zM435 555h397l-198 782zM1070 1701h-148l-235 191h163zM336 1552l222 188h156l223 -188h-153l-148 128l-149 -128h-151z" />
    <glyph glyph-name="uni1EA8" unicode="&#x1ea8;" horiz-adv-x="1266" 
d="M70 0l394 1478h341l390 -1478h-223l-95 375h-488l-95 -375h-224zM435 555h397l-198 782zM729 1955q108 0 194.5 -8.5t136.5 -35t50 -80.5q0 -71 -75.5 -102t-177.5 -31l-25 63q34 1 73 7t66.5 19t27.5 36q0 38 -73 47.5t-197 9.5v75zM335 1552l222 188h156l223 -188h-153
l-148 128l-149 -128h-151z" />
    <glyph glyph-name="uni1EAA" unicode="&#x1eaa;" horiz-adv-x="1266" 
d="M70 0l394 1478h341l390 -1478h-223l-95 375h-488l-95 -375h-224zM435 555h397l-198 782zM334 1552l222 188h156l223 -188h-153l-148 128l-149 -128h-151zM942 1991q-1 -37 -19 -79.5t-56 -72.5t-100 -30q-47 0 -81.5 19t-58.5 38q-22 18 -45.5 32t-54.5 14
q-39 0 -54 -24.5t-17 -53.5h-119q2 39 22.5 82t61 73t101.5 30q47 0 80 -18.5t56 -37.5q23 -18 47.5 -33t51.5 -15q38 0 51.5 23t14.5 53h119z" />
    <glyph glyph-name="uni0200" unicode="&#x200;" horiz-adv-x="1266" 
d="M70 0l394 1478h341l390 -1478h-223l-95 375h-488l-95 -375h-224zM435 555h397l-198 782zM864 1552h-129l-203 192h151zM549 1552h-130l-217 192h151z" />
    <glyph glyph-name="Adieresis" unicode="&#xc4;" horiz-adv-x="1266" 
d="M70 0l394 1478h341l390 -1478h-223l-95 375h-488l-95 -375h-224zM435 555h397l-198 782zM425 1555q-51 0 -89 28.5t-38 77.5q0 50 38 78t89 28q50 0 88 -28t38 -78t-38 -78t-88 -28zM845 1555q-51 0 -88.5 28.5t-37.5 77.5q0 50 37.5 78t88.5 28t89 -28t38 -78t-38 -78
t-89 -28z" />
    <glyph glyph-name="uni01DE" unicode="&#x1de;" horiz-adv-x="1266" 
d="M70 0l394 1478h341l390 -1478h-223l-95 375h-488l-95 -375h-224zM435 555h397l-198 782zM425 1555q-51 0 -89 28.5t-38 77.5q0 50 38 78t89 28q50 0 88 -28t38 -78t-38 -78t-88 -28zM845 1555q-51 0 -88.5 28.5t-37.5 77.5q0 50 37.5 78t88.5 28t89 -28t38 -78t-38 -78
t-89 -28zM357 1876v94h553v-94h-553z" />
    <glyph glyph-name="uni1EA0" unicode="&#x1ea0;" horiz-adv-x="1266" 
d="M70 0l394 1478h341l390 -1478h-223l-95 375h-488l-95 -375h-224zM435 555h397l-198 782zM633 -365q-55 0 -96 30t-41 83q0 54 41 84t96 30q54 0 95 -30t41 -84q0 -53 -41 -83t-95 -30z" />
    <glyph glyph-name="Agrave" unicode="&#xc0;" horiz-adv-x="1266" 
d="M70 0l394 1478h341l390 -1478h-223l-95 375h-488l-95 -375h-224zM435 555h397l-198 782zM777 1553h-175l-298 190h194z" />
    <glyph glyph-name="uni1EA2" unicode="&#x1ea2;" horiz-adv-x="1266" 
d="M70 0l394 1478h341l390 -1478h-223l-95 375h-488l-95 -375h-224zM435 555h397l-198 782zM424 1777q109 0 195.5 -8.5t136.5 -35t50 -80.5q0 -71 -76 -102.5t-177 -31.5l-25 64q34 1 73 7t66 19t27 36q0 38 -72.5 47.5t-197.5 9.5v75z" />
    <glyph glyph-name="uni0202" unicode="&#x202;" horiz-adv-x="1266" 
d="M70 0l394 1478h341l390 -1478h-223l-95 375h-488l-95 -375h-224zM435 555h397l-198 782zM377 1543q0 82 73.5 131.5t183.5 49.5t183.5 -49.5t73.5 -131.5h-131q0 38 -34 65.5t-92 27.5t-92 -27.5t-34 -65.5h-131z" />
    <glyph glyph-name="Amacron" unicode="&#x100;" horiz-adv-x="1266" 
d="M70 0l394 1478h341l390 -1478h-223l-95 375h-488l-95 -375h-224zM435 555h397l-198 782zM357 1610v94h553v-94h-553z" />
    <glyph glyph-name="Aogonek" unicode="&#x104;" horiz-adv-x="1266" 
d="M70 0l394 1478h341l390 -1478h-223l-95 375h-488l-95 -375h-224zM435 555h397l-198 782zM1196 -322v-109q-20 -3 -44.5 -5t-48.5 -2q-87 0 -151 36t-64 120q0 53 31.5 107t76.5 100t84 75h116q-34 -30 -76 -75t-73 -92.5t-31 -84.5q0 -42 28 -60t72 -18q19 0 41 2.5
t39 5.5z" />
    <glyph glyph-name="Aring" unicode="&#xc5;" horiz-adv-x="1266" 
d="M70 0l394 1478h341l390 -1478h-223l-95 375h-488l-95 -375h-224zM435 555h397l-198 782zM634 1520q-84 0 -144.5 60t-60.5 145q0 84 60.5 144.5t144.5 60.5q85 0 145 -60.5t60 -144.5q0 -85 -60 -145t-145 -60zM634 1618q45 0 76 31t31 76q0 44 -31 75t-76 31
q-44 0 -75 -31t-31 -75q0 -45 31 -76t75 -31z" />
    <glyph glyph-name="Aringacute" unicode="&#x1fa;" horiz-adv-x="1266" 
d="M70 0l394 1478h341l390 -1478h-223l-95 375h-488l-95 -375h-224zM435 555h397l-198 782zM634 1520q-84 0 -144.5 60t-60.5 145q0 84 60.5 144.5t144.5 60.5q85 0 145 -60.5t60 -144.5q0 -85 -60 -145t-145 -60zM634 1618q45 0 76 31t31 76q0 44 -31 75t-76 31
q-44 0 -75 -31t-31 -75q0 -45 31 -76t75 -31zM496 1976l279 190h194l-297 -190h-176z" />
    <glyph glyph-name="Atilde" unicode="&#xc3;" horiz-adv-x="1266" 
d="M70 0l394 1478h341l390 -1478h-223l-95 375h-488l-95 -375h-224zM435 555h397l-198 782zM942 1726q-1 -37 -19 -79.5t-56 -72.5t-100 -30q-47 0 -81.5 19t-58.5 38q-22 18 -45.5 32t-54.5 14q-39 0 -54 -24.5t-17 -53.5h-119q2 39 22.5 82t61 73t101.5 30q47 0 80 -18.5
t56 -37.5q23 -18 47.5 -33t51.5 -15q38 0 51.5 23t14.5 53h119z" />
    <glyph glyph-name="AE" unicode="&#xc6;" horiz-adv-x="1909" 
d="M0 0l855 1475h919v-180h-628v-465h517v-180h-517v-470h628v-180h-837v313h-525l-176 -313h-236zM512 490h425v755z" />
    <glyph glyph-name="AEacute" unicode="&#x1fc;" horiz-adv-x="1909" 
d="M0 0l855 1475h919v-180h-628v-465h517v-180h-517v-470h628v-180h-837v313h-525l-176 -313h-236zM512 490h425v755zM965 1553l279 190h194l-297 -190h-176z" />
    <glyph glyph-name="B" unicode="B" horiz-adv-x="1237" 
d="M656 1475q213 0 324.5 -89t111.5 -264q0 -112 -45.5 -188.5t-116 -117t-144.5 -44.5q80 -2 158 -37.5t129.5 -114t51.5 -209.5q0 -190 -114.5 -300.5t-361.5 -110.5h-514v1475h521zM602 1295h-258v-440h227q146 0 225 60t79 172q0 113 -73.5 160.5t-199.5 47.5zM607 180
q140 0 218.5 62.5t78.5 180.5q0 94 -43.5 149.5t-116.5 79.5t-161 24h-239v-496h263z" />
    <glyph glyph-name="C" unicode="C" horiz-adv-x="1354" 
d="M1259 522q0 -91 -34 -186.5t-103 -176.5t-174 -130.5t-247 -49.5q-193 0 -328.5 97t-206.5 268.5t-71 392.5q0 222 71 393t206.5 267.5t328.5 96.5q161 0 274.5 -63t181 -162t89.5 -206q13 -58 13 -110h-218q0 28 -5 61q-17 120 -102.5 207t-232.5 87
q-172 0 -278.5 -143.5t-106.5 -427.5t106.5 -428.5t278.5 -144.5q110 0 185.5 52t115 134t39.5 172h218z" />
    <glyph glyph-name="Cacute" unicode="&#x106;" horiz-adv-x="1354" 
d="M1259 522q0 -91 -34 -186.5t-103 -176.5t-174 -130.5t-247 -49.5q-193 0 -328.5 97t-206.5 268.5t-71 392.5q0 222 71 393t206.5 267.5t328.5 96.5q161 0 274.5 -63t181 -162t89.5 -206q13 -58 13 -110h-218q0 28 -5 61q-17 120 -102.5 207t-232.5 87
q-172 0 -278.5 -143.5t-106.5 -427.5t106.5 -428.5t278.5 -144.5q110 0 185.5 52t115 134t39.5 172h218zM558 1553l279 190h194l-297 -190h-176z" />
    <glyph glyph-name="Ccaron" unicode="&#x10c;" horiz-adv-x="1354" 
d="M1259 522q0 -91 -34 -186.5t-103 -176.5t-174 -130.5t-247 -49.5q-193 0 -328.5 97t-206.5 268.5t-71 392.5q0 222 71 393t206.5 267.5t328.5 96.5q161 0 274.5 -63t181 -162t89.5 -206q13 -58 13 -110h-218q0 28 -5 61q-17 120 -102.5 207t-232.5 87
q-172 0 -278.5 -143.5t-106.5 -427.5t106.5 -428.5t278.5 -144.5q110 0 185.5 52t115 134t39.5 172h218zM396 1740h151l149 -129l148 129h153l-223 -188h-156z" />
    <glyph glyph-name="Ccedilla" unicode="&#xc7;" horiz-adv-x="1354" 
d="M789 -91q52 0 97 -35.5t45 -113.5q0 -62 -35.5 -102.5t-92 -60t-120.5 -19.5q-58 0 -111.5 14t-73.5 28l45 85q16 -10 56.5 -25t91.5 -15q59 0 99 25.5t40 73.5q0 39 -21 57.5t-54 18.5q-25 0 -51.5 -10t-38.5 -27l-88 26l62 153q-174 16 -295.5 117.5t-185 266.5
t-63.5 371q0 219 70.5 390t206 269t329.5 98q161 0 274.5 -63t181 -162t89.5 -206q13 -58 13 -110h-218q0 28 -5 61q-17 120 -102.5 207t-232.5 87q-172 0 -278.5 -143.5t-106.5 -427.5t106.5 -428.5t278.5 -144.5q110 0 185.5 52t115 134t39.5 172h218q0 -89 -32 -181
t-96.5 -171.5t-163 -131.5t-230.5 -58l-39 -97q38 26 91 26z" />
    <glyph glyph-name="uni1E08" unicode="&#x1e08;" horiz-adv-x="1354" 
d="M789 -91q52 0 97 -35.5t45 -113.5q0 -62 -35.5 -102.5t-92 -60t-120.5 -19.5q-58 0 -111.5 14t-73.5 28l45 85q16 -10 56.5 -25t91.5 -15q59 0 99 25.5t40 73.5q0 39 -21 57.5t-54 18.5q-25 0 -51.5 -10t-38.5 -27l-88 26l62 153q-174 16 -295.5 117.5t-185 266.5
t-63.5 371q0 219 70.5 390t206 269t329.5 98q161 0 274.5 -63t181 -162t89.5 -206q13 -58 13 -110h-218q0 28 -5 61q-17 120 -102.5 207t-232.5 87q-172 0 -278.5 -143.5t-106.5 -427.5t106.5 -428.5t278.5 -144.5q110 0 185.5 52t115 134t39.5 172h218q0 -89 -32 -181
t-96.5 -171.5t-163 -131.5t-230.5 -58l-39 -97q38 26 91 26zM558 1553l279 190h194l-297 -190h-176z" />
    <glyph glyph-name="Ccircumflex" unicode="&#x108;" horiz-adv-x="1354" 
d="M1259 522q0 -91 -34 -186.5t-103 -176.5t-174 -130.5t-247 -49.5q-193 0 -328.5 97t-206.5 268.5t-71 392.5q0 222 71 393t206.5 267.5t328.5 96.5q161 0 274.5 -63t181 -162t89.5 -206q13 -58 13 -110h-218q0 28 -5 61q-17 120 -102.5 207t-232.5 87
q-172 0 -278.5 -143.5t-106.5 -427.5t106.5 -428.5t278.5 -144.5q110 0 185.5 52t115 134t39.5 172h218zM396 1552l222 188h156l223 -188h-153l-148 128l-149 -128h-151z" />
    <glyph glyph-name="Cdotaccent" unicode="&#x10a;" horiz-adv-x="1354" 
d="M1259 522q0 -91 -34 -186.5t-103 -176.5t-174 -130.5t-247 -49.5q-193 0 -328.5 97t-206.5 268.5t-71 392.5q0 222 71 393t206.5 267.5t328.5 96.5q161 0 274.5 -63t181 -162t89.5 -206q13 -58 13 -110h-218q0 28 -5 61q-17 120 -102.5 207t-232.5 87
q-172 0 -278.5 -143.5t-106.5 -427.5t106.5 -428.5t278.5 -144.5q110 0 185.5 52t115 134t39.5 172h218zM699 1568q-55 0 -96 30.5t-41 83.5q0 54 41 84t96 30t95.5 -30t40.5 -84t-40.5 -84t-95.5 -30z" />
    <glyph glyph-name="D" unicode="D" horiz-adv-x="1281" 
d="M135 0v1475h405q195 0 340.5 -90.5t225.5 -256t80 -389.5q0 -225 -80 -391t-225.5 -257t-340.5 -91h-405zM514 1295h-161v-1115h161q130 0 232 68t160.5 193t58.5 298q0 172 -58.5 297t-160.5 192t-232 67z" />
    <glyph glyph-name="uni01C4" unicode="&#x1c4;" horiz-adv-x="2301" 
d="M135 0v1475h405q195 0 340.5 -90.5t225.5 -256t80 -389.5q0 -225 -80 -391t-225.5 -257t-340.5 -91h-405zM514 1295h-161v-1115h161q130 0 232 68t160.5 193t58.5 298q0 172 -58.5 297t-160.5 192t-232 67zM1518 180h674v-180h-917v159l685 1136h-640v180h882v-156
l-684 -1136v-3zM1440 1740h151l149 -129l148 129h153l-223 -188h-156z" />
    <glyph glyph-name="Eth" unicode="&#xd0;" horiz-adv-x="1281" 
d="M135 0v686h-130v102h130v687h405q195 0 340.5 -90.5t225.5 -256t80 -389.5q0 -225 -80 -391t-225.5 -257t-340.5 -91h-405zM712 686h-359v-506h161q130 0 232 68t160.5 193t58.5 298q0 172 -58.5 297t-160.5 192t-232 67h-161v-507h359v-102z" />
    <glyph glyph-name="Dcaron" unicode="&#x10e;" horiz-adv-x="1281" 
d="M135 0v1475h405q195 0 340.5 -90.5t225.5 -256t80 -389.5q0 -225 -80 -391t-225.5 -257t-340.5 -91h-405zM514 1295h-161v-1115h161q130 0 232 68t160.5 193t58.5 298q0 172 -58.5 297t-160.5 192t-232 67zM313 1740h151l149 -129l148 129h153l-223 -188h-156z" />
    <glyph glyph-name="Dcroat" unicode="&#x110;" horiz-adv-x="1281" 
d="M135 0v1475h405q195 0 340.5 -90.5t225.5 -256t80 -389.5q0 -225 -80 -391t-225.5 -257t-340.5 -91h-405zM514 1295h-161v-1115h161q130 0 232 68t160.5 193t58.5 298q0 172 -58.5 297t-160.5 192t-232 67zM4 685v103h707v-103h-707z" />
    <glyph glyph-name="uni1E0C" unicode="&#x1e0c;" horiz-adv-x="1281" 
d="M135 0v1475h405q195 0 340.5 -90.5t225.5 -256t80 -389.5q0 -225 -80 -391t-225.5 -257t-340.5 -91h-405zM514 1295h-161v-1115h161q130 0 232 68t160.5 193t58.5 298q0 172 -58.5 297t-160.5 192t-232 67zM614 -365q-55 0 -96 30t-41 83q0 54 41 84t96 30q54 0 95 -30
t41 -84q0 -53 -41 -83t-95 -30z" />
    <glyph glyph-name="uni1E0E" unicode="&#x1e0e;" horiz-adv-x="1281" 
d="M135 0v1475h405q195 0 340.5 -90.5t225.5 -256t80 -389.5q0 -225 -80 -391t-225.5 -257t-340.5 -91h-405zM514 1295h-161v-1115h161q130 0 232 68t160.5 193t58.5 298q0 172 -58.5 297t-160.5 192t-232 67zM314 -274v95h599v-95h-599z" />
    <glyph glyph-name="uni01C5" unicode="&#x1c5;" horiz-adv-x="2270" 
d="M135 0v1475h405q195 0 340.5 -90.5t225.5 -256t80 -389.5q0 -225 -80 -391t-225.5 -257t-340.5 -91h-405zM514 1295h-161v-1115h161q130 0 232 68t160.5 193t58.5 298q0 172 -58.5 297t-160.5 192t-232 67zM2200 185v-185h-849v177l597 700h-574v185h816v-177l-595 -700
h605zM1485 1475h146l149 -175l148 175h148l-221 -253h-150z" />
    <glyph glyph-name="E" unicode="E" horiz-adv-x="1106" 
d="M971 180v-180h-836v1475h836v-180h-618v-465h507v-180h-507v-470h618z" />
    <glyph glyph-name="Eacute" unicode="&#xc9;" horiz-adv-x="1106" 
d="M971 180v-180h-836v1475h836v-180h-618v-465h507v-180h-507v-470h618zM427 1553l279 190h194l-297 -190h-176z" />
    <glyph glyph-name="Ebreve" unicode="&#x114;" horiz-adv-x="1106" 
d="M971 180v-180h-836v1475h836v-180h-618v-465h507v-180h-507v-470h618zM308 1722h132q0 -40 33.5 -69.5t91.5 -29.5t91.5 29.5t33.5 69.5h132q0 -83 -73.5 -135.5t-183.5 -52.5t-183.5 52.5t-73.5 135.5z" />
    <glyph glyph-name="Ecaron" unicode="&#x11a;" horiz-adv-x="1106" 
d="M971 180v-180h-836v1475h836v-180h-618v-465h507v-180h-507v-470h618zM265 1740h151l149 -129l148 129h153l-223 -188h-156z" />
    <glyph glyph-name="uni0228" unicode="&#x228;" horiz-adv-x="1106" 
d="M971 180v-180h-836v1475h836v-180h-618v-465h507v-180h-507v-470h618zM670 -91q51 0 96 -35.5t45 -113.5q0 -62 -35.5 -102.5t-92 -60t-119.5 -19.5q-59 0 -112 14t-73 28l45 85q15 -10 56 -25t92 -15q58 0 98.5 25.5t40.5 73.5q0 39 -21.5 57.5t-54.5 18.5
q-25 0 -51 -10t-39 -27l-87 26l70 171h98l-48 -117q39 26 92 26z" />
    <glyph glyph-name="uni1E1C" unicode="&#x1e1c;" horiz-adv-x="1106" 
d="M971 180v-180h-836v1475h836v-180h-618v-465h507v-180h-507v-470h618zM670 -91q51 0 96 -35.5t45 -113.5q0 -62 -35.5 -102.5t-92 -60t-119.5 -19.5q-59 0 -112 14t-73 28l45 85q15 -10 56 -25t92 -15q58 0 98.5 25.5t40.5 73.5q0 39 -21.5 57.5t-54.5 18.5
q-25 0 -51 -10t-39 -27l-87 26l70 171h98l-48 -117q39 26 92 26zM308 1722h132q0 -40 33.5 -69.5t91.5 -29.5t91.5 29.5t33.5 69.5h132q0 -83 -73.5 -135.5t-183.5 -52.5t-183.5 52.5t-73.5 135.5z" />
    <glyph glyph-name="Ecircumflex" unicode="&#xca;" horiz-adv-x="1106" 
d="M971 180v-180h-836v1475h836v-180h-618v-465h507v-180h-507v-470h618zM265 1552l222 188h156l223 -188h-153l-148 128l-149 -128h-151z" />
    <glyph glyph-name="uni1EBE" unicode="&#x1ebe;" horiz-adv-x="1106" 
d="M971 180v-180h-836v1475h836v-180h-618v-465h507v-180h-507v-470h618zM763 1701l219 191h164l-236 -191h-147zM264 1552l222 188h157l222 -188h-152l-148 128l-150 -128h-151z" />
    <glyph glyph-name="uni1EC6" unicode="&#x1ec6;" horiz-adv-x="1106" 
d="M971 180v-180h-836v1475h836v-180h-618v-465h507v-180h-507v-470h618zM580 -365q-55 0 -96 30t-41 83q0 54 41 84t96 30q54 0 95 -30t41 -84q0 -53 -41 -83t-95 -30zM265 1552l222 188h156l223 -188h-153l-148 128l-149 -128h-151z" />
    <glyph glyph-name="uni1EC0" unicode="&#x1ec0;" horiz-adv-x="1106" 
d="M971 180v-180h-836v1475h836v-180h-618v-465h507v-180h-507v-470h618zM1001 1701h-148l-235 191h163zM267 1552l222 188h156l223 -188h-153l-148 128l-149 -128h-151z" />
    <glyph glyph-name="uni1EC2" unicode="&#x1ec2;" horiz-adv-x="1106" 
d="M971 180v-180h-836v1475h836v-180h-618v-465h507v-180h-507v-470h618zM660 1955q108 0 194.5 -8.5t136.5 -35t50 -80.5q0 -71 -75.5 -102t-177.5 -31l-25 63q34 1 73 7t66.5 19t27.5 36q0 38 -73 47.5t-197 9.5v75zM266 1552l222 188h156l223 -188h-153l-148 128
l-149 -128h-151z" />
    <glyph glyph-name="uni1EC4" unicode="&#x1ec4;" horiz-adv-x="1106" 
d="M971 180v-180h-836v1475h836v-180h-618v-465h507v-180h-507v-470h618zM265 1552l222 188h156l223 -188h-153l-148 128l-149 -128h-151zM873 1991q-1 -37 -19 -79.5t-56 -72.5t-100 -30q-47 0 -81.5 19t-58.5 38q-22 18 -45.5 32t-54.5 14q-39 0 -54 -24.5t-17 -53.5h-119
q2 39 22.5 82t61 73t101.5 30q47 0 80 -18.5t56 -37.5q23 -18 47.5 -33t51.5 -15q38 0 51.5 23t14.5 53h119z" />
    <glyph glyph-name="uni0204" unicode="&#x204;" horiz-adv-x="1106" 
d="M971 180v-180h-836v1475h836v-180h-618v-465h507v-180h-507v-470h618zM795 1552h-129l-203 192h151zM480 1552h-130l-217 192h151z" />
    <glyph glyph-name="Edieresis" unicode="&#xcb;" horiz-adv-x="1106" 
d="M971 180v-180h-836v1475h836v-180h-618v-465h507v-180h-507v-470h618zM356 1555q-51 0 -89 28.5t-38 77.5q0 50 38 78t89 28q50 0 88 -28t38 -78t-38 -78t-88 -28zM776 1555q-51 0 -88.5 28.5t-37.5 77.5q0 50 37.5 78t88.5 28t89 -28t38 -78t-38 -78t-89 -28z" />
    <glyph glyph-name="Edotaccent" unicode="&#x116;" horiz-adv-x="1106" 
d="M971 180v-180h-836v1475h836v-180h-618v-465h507v-180h-507v-470h618zM568 1568q-55 0 -96 30.5t-41 83.5q0 54 41 84t96 30t95.5 -30t40.5 -84t-40.5 -84t-95.5 -30z" />
    <glyph glyph-name="uni1EB8" unicode="&#x1eb8;" horiz-adv-x="1106" 
d="M971 180v-180h-836v1475h836v-180h-618v-465h507v-180h-507v-470h618zM580 -365q-55 0 -96 30t-41 83q0 54 41 84t96 30q54 0 95 -30t41 -84q0 -53 -41 -83t-95 -30z" />
    <glyph glyph-name="Egrave" unicode="&#xc8;" horiz-adv-x="1106" 
d="M971 180v-180h-836v1475h836v-180h-618v-465h507v-180h-507v-470h618zM708 1553h-175l-298 190h194z" />
    <glyph glyph-name="uni1EBA" unicode="&#x1eba;" horiz-adv-x="1106" 
d="M971 180v-180h-836v1475h836v-180h-618v-465h507v-180h-507v-470h618zM355 1777q109 0 195.5 -8.5t136.5 -35t50 -80.5q0 -71 -76 -102.5t-177 -31.5l-25 64q34 1 73 7t66 19t27 36q0 38 -72.5 47.5t-197.5 9.5v75z" />
    <glyph glyph-name="uni0206" unicode="&#x206;" horiz-adv-x="1106" 
d="M971 180v-180h-836v1475h836v-180h-618v-465h507v-180h-507v-470h618zM308 1543q0 82 73.5 131.5t183.5 49.5t183.5 -49.5t73.5 -131.5h-131q0 38 -34 65.5t-92 27.5t-92 -27.5t-34 -65.5h-131z" />
    <glyph glyph-name="Emacron" unicode="&#x112;" horiz-adv-x="1106" 
d="M971 180v-180h-836v1475h836v-180h-618v-465h507v-180h-507v-470h618zM288 1610v94h553v-94h-553z" />
    <glyph glyph-name="uni1E16" unicode="&#x1e16;" horiz-adv-x="1106" 
d="M971 180v-180h-836v1475h836v-180h-618v-465h507v-180h-507v-470h618zM288 1610v94h553v-94h-553zM427 1782l279 190h194l-297 -190h-176z" />
    <glyph glyph-name="uni1E14" unicode="&#x1e14;" horiz-adv-x="1106" 
d="M971 180v-180h-836v1475h836v-180h-618v-465h507v-180h-507v-470h618zM288 1610v94h553v-94h-553zM708 1782h-175l-298 190h194z" />
    <glyph glyph-name="Eogonek" unicode="&#x118;" horiz-adv-x="1106" 
d="M971 180v-180h-836v1475h836v-180h-618v-465h507v-180h-507v-470h618zM971 -322v-109q-20 -3 -44.5 -5t-48.5 -2q-87 0 -151 36t-64 120q0 53 31.5 107t76.5 100t84 75h116q-34 -30 -76 -75t-73 -92.5t-31 -84.5q0 -42 28 -60t72 -18q19 0 41 2.5t39 5.5z" />
    <glyph glyph-name="uni1EBC" unicode="&#x1ebc;" horiz-adv-x="1106" 
d="M971 180v-180h-836v1475h836v-180h-618v-465h507v-180h-507v-470h618zM873 1726q-1 -37 -19 -79.5t-56 -72.5t-100 -30q-47 0 -81.5 19t-58.5 38q-22 18 -45.5 32t-54.5 14q-39 0 -54 -24.5t-17 -53.5h-119q2 39 22.5 82t61 73t101.5 30q47 0 80 -18.5t56 -37.5
q23 -18 47.5 -33t51.5 -15q38 0 51.5 23t14.5 53h119z" />
    <glyph glyph-name="uni01B7" unicode="&#x1b7;" horiz-adv-x="1178" 
d="M583 -21q-172 0 -273.5 62t-145.5 170t-44 246v4h218v-4q0 -169 65.5 -233.5t182.5 -64.5q104 0 166 63t62 208q0 139 -73 186.5t-242 47.5h-91l368 631h-621v180h859v-167l-299 -486q167 0 242.5 -107t75.5 -273q0 -206 -109.5 -334.5t-340.5 -128.5z" />
    <glyph glyph-name="uni01EE" unicode="&#x1ee;" horiz-adv-x="1178" 
d="M583 -21q-172 0 -273.5 62t-145.5 170t-44 246v4h218v-4q0 -169 65.5 -233.5t182.5 -64.5q104 0 166 63t62 208q0 139 -73 186.5t-242 47.5h-91l368 631h-621v180h859v-167l-299 -486q167 0 242.5 -107t75.5 -273q0 -206 -109.5 -334.5t-340.5 -128.5zM289 1740h151
l149 -129l148 129h153l-223 -188h-156z" />
    <glyph glyph-name="F" unicode="F" horiz-adv-x="1066" 
d="M882 635h-531v-635h-216v1475h836v-180h-620v-480h531v-180z" />
    <glyph glyph-name="G" unicode="G" horiz-adv-x="1390" 
d="M702 -21q-169 0 -306.5 89t-219 258t-81.5 409t83.5 410t226 259.5t319.5 89.5q144 0 245.5 -49t164.5 -126t92 -163t29 -160v-12h-211v12q0 75 -34.5 146.5t-106 118t-179.5 46.5q-111 0 -204 -60.5t-149.5 -187t-56.5 -324.5q0 -201 54.5 -327t145 -185t199.5 -59
t181 38t111 93.5t51 110.5v135h-338v170h533v-711h-139l-16 164q-10 -22 -52 -66.5t-125 -81.5t-217 -37z" />
    <glyph glyph-name="Gbreve" unicode="&#x11e;" horiz-adv-x="1390" 
d="M702 -21q-169 0 -306.5 89t-219 258t-81.5 409t83.5 410t226 259.5t319.5 89.5q144 0 245.5 -49t164.5 -126t92 -163t29 -160v-12h-211v12q0 75 -34.5 146.5t-106 118t-179.5 46.5q-111 0 -204 -60.5t-149.5 -187t-56.5 -324.5q0 -201 54.5 -327t145 -185t199.5 -59
t181 38t111 93.5t51 110.5v135h-338v170h533v-711h-139l-16 164q-10 -22 -52 -66.5t-125 -81.5t-217 -37zM463 1722h132q0 -40 33.5 -69.5t91.5 -29.5t91.5 29.5t33.5 69.5h132q0 -83 -73.5 -135.5t-183.5 -52.5t-183.5 52.5t-73.5 135.5z" />
    <glyph glyph-name="Gcaron" unicode="&#x1e6;" horiz-adv-x="1390" 
d="M702 -21q-169 0 -306.5 89t-219 258t-81.5 409t83.5 410t226 259.5t319.5 89.5q144 0 245.5 -49t164.5 -126t92 -163t29 -160v-12h-211v12q0 75 -34.5 146.5t-106 118t-179.5 46.5q-111 0 -204 -60.5t-149.5 -187t-56.5 -324.5q0 -201 54.5 -327t145 -185t199.5 -59
t181 38t111 93.5t51 110.5v135h-338v170h533v-711h-139l-16 164q-10 -22 -52 -66.5t-125 -81.5t-217 -37zM420 1740h151l149 -129l148 129h153l-223 -188h-156z" />
    <glyph glyph-name="Gcircumflex" unicode="&#x11c;" horiz-adv-x="1390" 
d="M702 -21q-169 0 -306.5 89t-219 258t-81.5 409t83.5 410t226 259.5t319.5 89.5q144 0 245.5 -49t164.5 -126t92 -163t29 -160v-12h-211v12q0 75 -34.5 146.5t-106 118t-179.5 46.5q-111 0 -204 -60.5t-149.5 -187t-56.5 -324.5q0 -201 54.5 -327t145 -185t199.5 -59
t181 38t111 93.5t51 110.5v135h-338v170h533v-711h-139l-16 164q-10 -22 -52 -66.5t-125 -81.5t-217 -37zM420 1552l222 188h156l223 -188h-153l-148 128l-149 -128h-151z" />
    <glyph glyph-name="uni0122" unicode="&#x122;" horiz-adv-x="1390" 
d="M702 -21q-169 0 -306.5 89t-219 258t-81.5 409t83.5 410t226 259.5t319.5 89.5q144 0 245.5 -49t164.5 -126t92 -163t29 -160v-12h-211v12q0 75 -34.5 146.5t-106 118t-179.5 46.5q-111 0 -204 -60.5t-149.5 -187t-56.5 -324.5q0 -201 54.5 -327t145 -185t199.5 -59
t181 38t111 93.5t51 110.5v135h-338v170h533v-711h-139l-16 164q-10 -22 -52 -66.5t-125 -81.5t-217 -37zM696 -251q-38 0 -62.5 22t-24.5 58q0 42 32 63.5t72 21.5q37 0 72.5 -24t35.5 -82q0 -69 -27 -119t-66.5 -82.5t-77.5 -50.5l-16 40q43 18 85.5 64t42.5 116
q-6 -12 -25.5 -19.5t-40.5 -7.5z" />
    <glyph glyph-name="Gdotaccent" unicode="&#x120;" horiz-adv-x="1390" 
d="M702 -21q-169 0 -306.5 89t-219 258t-81.5 409t83.5 410t226 259.5t319.5 89.5q144 0 245.5 -49t164.5 -126t92 -163t29 -160v-12h-211v12q0 75 -34.5 146.5t-106 118t-179.5 46.5q-111 0 -204 -60.5t-149.5 -187t-56.5 -324.5q0 -201 54.5 -327t145 -185t199.5 -59
t181 38t111 93.5t51 110.5v135h-338v170h533v-711h-139l-16 164q-10 -22 -52 -66.5t-125 -81.5t-217 -37zM723 1568q-55 0 -96 30.5t-41 83.5q0 54 41 84t96 30t95.5 -30t40.5 -84t-40.5 -84t-95.5 -30z" />
    <glyph glyph-name="uni1E20" unicode="&#x1e20;" horiz-adv-x="1390" 
d="M702 -21q-169 0 -306.5 89t-219 258t-81.5 409t83.5 410t226 259.5t319.5 89.5q144 0 245.5 -49t164.5 -126t92 -163t29 -160v-12h-211v12q0 75 -34.5 146.5t-106 118t-179.5 46.5q-111 0 -204 -60.5t-149.5 -187t-56.5 -324.5q0 -201 54.5 -327t145 -185t199.5 -59
t181 38t111 93.5t51 110.5v135h-338v170h533v-711h-139l-16 164q-10 -22 -52 -66.5t-125 -81.5t-217 -37zM443 1610v94h553v-94h-553z" />
    <glyph glyph-name="uni01E4" unicode="&#x1e4;" horiz-adv-x="1361" 
d="M683 -21q-170 0 -302.5 89t-209 258t-76.5 409t79 410t217 259.5t314 89.5q144 0 245.5 -49t164.5 -126.5t92 -164t29 -160.5v-12h-211v12q0 75 -34.5 147t-106 119t-179.5 47q-111 0 -199.5 -60.5t-140.5 -187t-52 -324.5q0 -203 50 -329t136 -184t195 -58
q126 0 202.5 50t111.5 114h-310v130h339v103h-338v162h533v-265h119v-130h-119v-328h-139l-16 164q-10 -22 -52 -66.5t-125 -81.5t-217 -37z" />
    <glyph glyph-name="H" unicode="H" horiz-adv-x="1322" 
d="M1187 1475v-1475h-217v645h-618v-645h-217v1475h217v-649h618v649h217z" />
    <glyph glyph-name="Hbar" unicode="&#x126;" horiz-adv-x="1322" 
d="M43 1083v140h92v252h217v-252h618v252h217v-252h91v-140h-91v-1083h-217v645h-618v-645h-217v1083h-92zM352 826h618v257h-618v-257z" />
    <glyph glyph-name="uni1E2A" unicode="&#x1e2a;" horiz-adv-x="1322" 
d="M1187 1475v-1475h-217v645h-618v-645h-217v1475h217v-649h618v649h217zM403 -123h132q0 -62 34 -95.5t92 -33.5t91.5 33.5t33.5 95.5h131q0 -108 -73.5 -162.5t-182.5 -54.5q-110 0 -184 54.5t-74 162.5z" />
    <glyph glyph-name="Hcircumflex" unicode="&#x124;" horiz-adv-x="1322" 
d="M1187 1475v-1475h-217v645h-618v-645h-217v1475h217v-649h618v649h217zM361 1552l222 188h156l223 -188h-153l-148 128l-149 -128h-151z" />
    <glyph glyph-name="uni1E24" unicode="&#x1e24;" horiz-adv-x="1322" 
d="M1187 1475v-1475h-217v645h-618v-645h-217v1475h217v-649h618v649h217zM661 -365q-55 0 -96 30t-41 83q0 54 41 84t96 30q54 0 95 -30t41 -84q0 -53 -41 -83t-95 -30z" />
    <glyph glyph-name="I" unicode="I" horiz-adv-x="493" 
d="M139 0v1475h214v-1475h-214z" />
    <glyph glyph-name="I.ss01" horiz-adv-x="1064" 
d="M110 0v180h313v1115h-313v180h843v-180h-313v-1115h313v-180h-843z" />
    <glyph glyph-name="Iacute" unicode="&#xcd;" horiz-adv-x="493" 
d="M139 0v1475h214v-1475h-214zM109 1553l279 190h194l-297 -190h-176z" />
    <glyph glyph-name="Iacute.ss01" horiz-adv-x="1064" 
d="M110 0v180h313v1115h-313v180h843v-180h-313v-1115h313v-180h-843zM394 1553l279 190h194l-297 -190h-176z" />
    <glyph glyph-name="Ibreve" unicode="&#x12c;" horiz-adv-x="493" 
d="M139 0v1475h214v-1475h-214zM-10 1722h132q0 -40 33.5 -69.5t91.5 -29.5t91.5 29.5t33.5 69.5h132q0 -83 -73.5 -135.5t-183.5 -52.5t-183.5 52.5t-73.5 135.5z" />
    <glyph glyph-name="Ibreve.ss01" horiz-adv-x="1064" 
d="M110 0v180h313v1115h-313v180h843v-180h-313v-1115h313v-180h-843zM275 1722h132q0 -40 33.5 -69.5t91.5 -29.5t91.5 29.5t33.5 69.5h132q0 -83 -73.5 -135.5t-183.5 -52.5t-183.5 52.5t-73.5 135.5z" />
    <glyph glyph-name="uni01CF" unicode="&#x1cf;" horiz-adv-x="493" 
d="M139 0v1475h214v-1475h-214zM-53 1740h151l149 -129l148 129h153l-223 -188h-156z" />
    <glyph glyph-name="uni01CF.ss01" horiz-adv-x="1064" 
d="M110 0v180h313v1115h-313v180h843v-180h-313v-1115h313v-180h-843zM232 1740h151l149 -129l148 129h153l-223 -188h-156z" />
    <glyph glyph-name="Icircumflex" unicode="&#xce;" horiz-adv-x="493" 
d="M139 0v1475h214v-1475h-214zM-53 1552l222 188h156l223 -188h-153l-148 128l-149 -128h-151z" />
    <glyph glyph-name="Icircumflex.ss01" horiz-adv-x="1064" 
d="M110 0v180h313v1115h-313v180h843v-180h-313v-1115h313v-180h-843zM232 1552l222 188h156l223 -188h-153l-148 128l-149 -128h-151z" />
    <glyph glyph-name="uni0208" unicode="&#x208;" horiz-adv-x="493" 
d="M139 0v1475h214v-1475h-214zM477 1552h-129l-203 192h151zM162 1552h-130l-217 192h151z" />
    <glyph glyph-name="uni0208.ss01" horiz-adv-x="1064" 
d="M110 0v180h313v1115h-313v180h843v-180h-313v-1115h313v-180h-843zM762 1552h-129l-203 192h151zM447 1552h-130l-217 192h151z" />
    <glyph glyph-name="Idieresis" unicode="&#xcf;" horiz-adv-x="493" 
d="M139 0v1475h214v-1475h-214zM95 1559q-51 0 -89 28.5t-38 78.5q0 49 38 77.5t89 28.5q50 0 88 -28.5t38 -77.5q0 -50 -38 -78.5t-88 -28.5zM402 1559q-51 0 -88.5 28.5t-37.5 78.5q0 49 37.5 77.5t88.5 28.5t89 -28.5t38 -77.5q0 -50 -38 -78.5t-89 -28.5z" />
    <glyph glyph-name="Idieresis.ss01" horiz-adv-x="1064" 
d="M110 0v180h313v1115h-313v180h843v-180h-313v-1115h313v-180h-843zM380 1559q-51 0 -89 28.5t-38 78.5q0 49 38 77.5t89 28.5q50 0 88 -28.5t38 -77.5q0 -50 -38 -78.5t-88 -28.5zM687 1559q-51 0 -88.5 28.5t-37.5 78.5q0 49 37.5 77.5t88.5 28.5t89 -28.5t38 -77.5
q0 -50 -38 -78.5t-89 -28.5z" />
    <glyph glyph-name="uni1E2E" unicode="&#x1e2e;" horiz-adv-x="493" 
d="M139 0v1475h214v-1475h-214zM95 1559q-51 0 -89 28.5t-38 78.5q0 49 38 77.5t89 28.5q50 0 88 -28.5t38 -77.5q0 -50 -38 -78.5t-88 -28.5zM402 1559q-51 0 -88.5 28.5t-37.5 78.5q0 49 37.5 77.5t88.5 28.5t89 -28.5t38 -77.5q0 -50 -38 -78.5t-89 -28.5zM113 1835
l279 190h194l-297 -190h-176z" />
    <glyph glyph-name="uni1E2E.ss01" horiz-adv-x="1064" 
d="M110 0v180h313v1115h-313v180h843v-180h-313v-1115h313v-180h-843zM380 1559q-51 0 -89 28.5t-38 78.5q0 49 38 77.5t89 28.5q50 0 88 -28.5t38 -77.5q0 -50 -38 -78.5t-88 -28.5zM687 1559q-51 0 -88.5 28.5t-37.5 78.5q0 49 37.5 77.5t88.5 28.5t89 -28.5t38 -77.5
q0 -50 -38 -78.5t-89 -28.5zM398 1835l279 190h194l-297 -190h-176z" />
    <glyph glyph-name="Idotaccent" unicode="&#x130;" horiz-adv-x="493" 
d="M139 0v1475h214v-1475h-214zM250 1568q-55 0 -96 30.5t-41 83.5q0 54 41 84t96 30t95.5 -30t40.5 -84t-40.5 -84t-95.5 -30z" />
    <glyph glyph-name="Idotaccent.ss01" horiz-adv-x="1064" 
d="M110 0v180h313v1115h-313v180h843v-180h-313v-1115h313v-180h-843zM535 1568q-55 0 -96 30.5t-41 83.5q0 54 41 84t96 30t95.5 -30t40.5 -84t-40.5 -84t-95.5 -30z" />
    <glyph glyph-name="uni1ECA" unicode="&#x1eca;" horiz-adv-x="493" 
d="M139 0v1475h214v-1475h-214zM247 -365q-55 0 -96 30t-41 83q0 54 41 84t96 30q54 0 95 -30t41 -84q0 -53 -41 -83t-95 -30z" />
    <glyph glyph-name="uni1ECA.ss01" horiz-adv-x="1064" 
d="M110 0v180h313v1115h-313v180h843v-180h-313v-1115h313v-180h-843zM532 -365q-55 0 -96 30t-41 83q0 54 41 84t96 30q54 0 95 -30t41 -84q0 -53 -41 -83t-95 -30z" />
    <glyph glyph-name="Igrave" unicode="&#xcc;" horiz-adv-x="493" 
d="M139 0v1475h214v-1475h-214zM390 1553h-175l-298 190h194z" />
    <glyph glyph-name="Igrave.ss01" horiz-adv-x="1064" 
d="M110 0v180h313v1115h-313v180h843v-180h-313v-1115h313v-180h-843zM675 1553h-175l-298 190h194z" />
    <glyph glyph-name="uni1EC8" unicode="&#x1ec8;" horiz-adv-x="493" 
d="M139 0v1475h214v-1475h-214zM37 1777q109 0 195.5 -8.5t136.5 -35t50 -80.5q0 -71 -76 -102.5t-177 -31.5l-25 64q34 1 73 7t66 19t27 36q0 38 -72.5 47.5t-197.5 9.5v75z" />
    <glyph glyph-name="uni1EC8.ss01" horiz-adv-x="1064" 
d="M110 0v180h313v1115h-313v180h843v-180h-313v-1115h313v-180h-843zM321 1777q109 0 195.5 -8.5t136.5 -35t50 -80.5q0 -71 -76 -102.5t-177 -31.5l-25 64q34 1 73 7t66 19t27 36q0 38 -72.5 47.5t-197.5 9.5v75z" />
    <glyph glyph-name="uni020A" unicode="&#x20a;" horiz-adv-x="493" 
d="M139 0v1475h214v-1475h-214zM-10 1543q0 82 73.5 131.5t183.5 49.5t183.5 -49.5t73.5 -131.5h-131q0 38 -34 65.5t-92 27.5t-92 -27.5t-34 -65.5h-131z" />
    <glyph glyph-name="uni020A.ss01" horiz-adv-x="1064" 
d="M110 0v180h313v1115h-313v180h843v-180h-313v-1115h313v-180h-843zM275 1543q0 82 73.5 131.5t183.5 49.5t183.5 -49.5t73.5 -131.5h-131q0 38 -34 65.5t-92 27.5t-92 -27.5t-34 -65.5h-131z" />
    <glyph glyph-name="Imacron" unicode="&#x12a;" horiz-adv-x="493" 
d="M139 0v1475h214v-1475h-214zM-30 1610v94h553v-94h-553z" />
    <glyph glyph-name="Imacron.ss01" horiz-adv-x="1064" 
d="M110 0v180h313v1115h-313v180h843v-180h-313v-1115h313v-180h-843zM333 1610v94h397v-94h-397z" />
    <glyph glyph-name="Iogonek" unicode="&#x12e;" horiz-adv-x="493" 
d="M139 0v1475h214v-1475h-214zM354 -322v-109q-20 -3 -44.5 -5t-48.5 -2q-87 0 -151 36t-64 120q0 53 31.5 107t76.5 100t84 75h116q-34 -30 -76 -75t-73 -92.5t-31 -84.5q0 -42 28 -60t72 -18q19 0 41 2.5t39 5.5z" />
    <glyph glyph-name="Iogonek.ss01" horiz-adv-x="1064" 
d="M110 0v180h313v1115h-313v180h843v-180h-313v-1115h313v-180h-843zM953 -322v-109q-20 -3 -44.5 -5t-48.5 -2q-87 0 -151 36t-64 120q0 53 31.5 107t76.5 100t84 75h116q-34 -30 -76 -75t-73 -92.5t-31 -84.5q0 -42 28 -60t72 -18q19 0 41 2.5t39 5.5z" />
    <glyph glyph-name="Itilde" unicode="&#x128;" horiz-adv-x="493" 
d="M139 0v1475h214v-1475h-214zM555 1726q-1 -37 -19 -79.5t-56 -72.5t-100 -30q-47 0 -81.5 19t-58.5 38q-22 18 -45.5 32t-54.5 14q-39 0 -54 -24.5t-17 -53.5h-119q2 39 22.5 82t61 73t101.5 30q47 0 80 -18.5t56 -37.5q23 -18 47.5 -33t51.5 -15q38 0 51.5 23t14.5 53
h119z" />
    <glyph glyph-name="Itilde.ss01" horiz-adv-x="1064" 
d="M110 0v180h313v1115h-313v180h843v-180h-313v-1115h313v-180h-843zM840 1726q-1 -37 -19 -79.5t-56 -72.5t-100 -30q-47 0 -81.5 19t-58.5 38q-22 18 -45.5 32t-54.5 14q-39 0 -54 -24.5t-17 -53.5h-119q2 39 22.5 82t61 73t101.5 30q47 0 80 -18.5t56 -37.5
q23 -18 47.5 -33t51.5 -15q38 0 51.5 23t14.5 53h119z" />
    <glyph glyph-name="J" unicode="J" horiz-adv-x="1111" 
d="M525 -21q-161 0 -260.5 61.5t-145 171.5t-45.5 257v61h214v-41q0 -92 22.5 -166t74.5 -116.5t140 -42.5q132 0 183 94.5t51 248.5v968h217v-997q0 -142 -42 -255t-140.5 -178.5t-268.5 -65.5z" />
    <glyph glyph-name="Jcircumflex" unicode="&#x134;" horiz-adv-x="1111" 
d="M525 -21q-161 0 -260.5 61.5t-145 171.5t-45.5 257v61h214v-41q0 -92 22.5 -166t74.5 -116.5t140 -42.5q132 0 183 94.5t51 248.5v968h217v-997q0 -142 -42 -255t-140.5 -178.5t-268.5 -65.5zM566 1552l222 188h156l223 -188h-153l-148 128l-149 -128h-151z" />
    <glyph glyph-name="K" unicode="K" horiz-adv-x="1222" 
d="M917 0l-424 654l-141 -187v-467h-217v1475h217v-706l539 706h234l-499 -657l533 -818h-242z" />
    <glyph glyph-name="uni01E8" unicode="&#x1e8;" horiz-adv-x="1222" 
d="M917 0l-424 654l-141 -187v-467h-217v1475h217v-706l539 706h234l-499 -657l533 -818h-242zM334 1740h151l149 -129l148 129h153l-223 -188h-156z" />
    <glyph glyph-name="uni0136" unicode="&#x136;" horiz-adv-x="1222" 
d="M917 0l-424 654l-141 -187v-467h-217v1475h217v-706l539 706h234l-499 -657l533 -818h-242zM604 -251q-38 0 -62.5 22t-24.5 58q0 42 32 63.5t72 21.5q37 0 72.5 -24t35.5 -82q0 -69 -27 -119t-66.5 -82.5t-77.5 -50.5l-16 40q43 18 85.5 64t42.5 116q-6 -12 -25.5 -19.5
t-40.5 -7.5z" />
    <glyph glyph-name="L" unicode="L" horiz-adv-x="1006" 
d="M135 0v1475h217v-1291h571v-184h-788z" />
    <glyph glyph-name="uni01C7" unicode="&#x1c7;" horiz-adv-x="2077" 
d="M135 0v1475h217v-1291h571v-184h-788zM1491 -21q-161 0 -260.5 61.5t-145 171.5t-45.5 257v61h214v-41q0 -92 22.5 -166t74.5 -116.5t140 -42.5q132 0 183 94.5t51 248.5v968h217v-997q0 -142 -42 -255t-140.5 -178.5t-268.5 -65.5z" />
    <glyph glyph-name="Lacute" unicode="&#x139;" horiz-adv-x="1006" 
d="M135 0v1475h217v-1291h571v-184h-788zM104 1553l279 190h194l-297 -190h-176z" />
    <glyph glyph-name="Lcaron" unicode="&#x13d;" horiz-adv-x="1006" 
d="M135 0v1475h217v-1291h571v-184h-788zM852 1475q0 -79 -9 -161t-19.5 -146t-16.5 -89h-106q6 26 12.5 88.5t11.5 143.5t5 164h122z" />
    <glyph glyph-name="uni013B" unicode="&#x13b;" horiz-adv-x="1006" 
d="M135 0v1475h217v-1291h571v-184h-788zM530 -251q-38 0 -62.5 22t-24.5 58q0 42 32 63.5t72 21.5q37 0 72.5 -24t35.5 -82q0 -69 -27 -119t-66.5 -82.5t-77.5 -50.5l-16 40q43 18 85.5 64t42.5 116q-6 -12 -25.5 -19.5t-40.5 -7.5z" />
    <glyph glyph-name="Ldot" unicode="&#x13f;" horiz-adv-x="1006" 
d="M135 0v1475h217v-1291h571v-184h-788zM747 677q-56 0 -94.5 38.5t-38.5 93.5t38.5 93.5t94.5 38.5q54 0 93 -38.5t39 -93.5t-39 -93.5t-93 -38.5z" />
    <glyph glyph-name="uni1E36" unicode="&#x1e36;" horiz-adv-x="1006" 
d="M135 0v1475h217v-1291h571v-184h-788zM550 -365q-55 0 -96 30t-41 83q0 54 41 84t96 30q54 0 95 -30t41 -84q0 -53 -41 -83t-95 -30z" />
    <glyph glyph-name="uni01C8" unicode="&#x1c8;" horiz-adv-x="1527" 
d="M135 0v1475h217v-1291h571v-184h-788zM1274 1282q-55 0 -96 30.5t-41 84.5q0 53 41 83.5t96 30.5t96 -30.5t41 -83.5q0 -54 -41 -84.5t-96 -30.5zM980 -450q-58 0 -94 7v163q16 -4 41.5 -7t52.5 -3q83 0 122 31.5t49.5 78t10.5 92.5v1150h217v-1157q0 -66 -13.5 -129
t-54 -114t-120 -81.5t-211.5 -30.5z" />
    <glyph glyph-name="uni1E3A" unicode="&#x1e3a;" horiz-adv-x="1006" 
d="M135 0v1475h217v-1291h571v-184h-788zM250 -274v95h599v-95h-599z" />
    <glyph glyph-name="Lslash" unicode="&#x141;" horiz-adv-x="1079" 
d="M208 0v486l-142 -95l-77 149l219 145v790h218v-646l224 149l76 -149l-300 -199v-446h571v-184h-789z" />
    <glyph glyph-name="M" unicode="M" horiz-adv-x="1697" 
d="M1175 1475h371v-1475h-206v1300l-341 -1300h-298l-344 1302v-1302h-207v1475h371l326 -1315z" />
    <glyph glyph-name="uni1E42" unicode="&#x1e42;" horiz-adv-x="1697" 
d="M1175 1475h371v-1475h-206v1300l-341 -1300h-298l-344 1302v-1302h-207v1475h371l326 -1315zM846 -365q-55 0 -96 30t-41 83q0 54 41 84t96 30q54 0 95 -30t41 -84q0 -53 -41 -83t-95 -30z" />
    <glyph glyph-name="N" unicode="N" horiz-adv-x="1384" 
d="M346 0h-211v1475h346l556 -1311v1311h212v-1475h-351l-552 1302v-1302z" />
    <glyph glyph-name="uni01CA" unicode="&#x1ca;" horiz-adv-x="2494" 
d="M346 0h-211v1475h346l556 -1311v1311h212v-1475h-351l-552 1302v-1302zM1909 -21q-161 0 -260.5 61.5t-145 171.5t-45.5 257v61h214v-41q0 -92 22.5 -166t74.5 -116.5t140 -42.5q132 0 183 94.5t51 248.5v968h217v-997q0 -142 -42 -255t-140.5 -178.5t-268.5 -65.5z" />
    <glyph glyph-name="Nacute" unicode="&#x143;" horiz-adv-x="1384" 
d="M346 0h-211v1475h346l556 -1311v1311h212v-1475h-351l-552 1302v-1302zM565 1553l279 190h194l-297 -190h-176z" />
    <glyph glyph-name="Ncaron" unicode="&#x147;" horiz-adv-x="1384" 
d="M346 0h-211v1475h346l556 -1311v1311h212v-1475h-351l-552 1302v-1302zM403 1740h151l149 -129l148 129h153l-223 -188h-156z" />
    <glyph glyph-name="uni0145" unicode="&#x145;" horiz-adv-x="1384" 
d="M346 0h-211v1475h346l556 -1311v1311h212v-1475h-351l-552 1302v-1302zM684 -251q-38 0 -62.5 22t-24.5 58q0 42 32 63.5t72 21.5q37 0 72.5 -24t35.5 -82q0 -69 -27 -119t-66.5 -82.5t-77.5 -50.5l-16 40q43 18 85.5 64t42.5 116q-6 -12 -25.5 -19.5t-40.5 -7.5z" />
    <glyph glyph-name="uni1E44" unicode="&#x1e44;" horiz-adv-x="1384" 
d="M346 0h-211v1475h346l556 -1311v1311h212v-1475h-351l-552 1302v-1302zM706 1568q-55 0 -96 30.5t-41 83.5q0 54 41 84t96 30t95.5 -30t40.5 -84t-40.5 -84t-95.5 -30z" />
    <glyph glyph-name="uni1E46" unicode="&#x1e46;" horiz-adv-x="1384" 
d="M346 0h-211v1475h346l556 -1311v1311h212v-1475h-351l-552 1302v-1302zM704 -365q-55 0 -96 30t-41 83q0 54 41 84t96 30q54 0 95 -30t41 -84q0 -53 -41 -83t-95 -30z" />
    <glyph glyph-name="Eng" unicode="&#x14a;" horiz-adv-x="1384" 
d="M787 -457q-34 0 -64.5 4t-41.5 8v159q13 -5 45.5 -9t61.5 -4q88 0 142 33.5t79 87.5t25 116v62h-123l-565 1291v-1291h-211v1475h342l560 -1284v1284h212v-1532q0 -126 -44.5 -215.5t-145.5 -137t-272 -47.5z" />
    <glyph glyph-name="uni019D" unicode="&#x19d;" horiz-adv-x="1384" 
d="M-78 -465v157q82 2 128.5 38t65.5 93.5t19 120.5v1531h350l552 -1309v1309h212v-1475h-354l-549 1298v-1354q0 -71 -13 -142t-54.5 -131t-126.5 -97t-230 -39z" />
    <glyph glyph-name="uni01CB" unicode="&#x1cb;" horiz-adv-x="1860" 
d="M346 0h-211v1475h346l556 -1311v1311h212v-1475h-351l-552 1302v-1302zM1606 1282q-55 0 -96 30.5t-41 84.5q0 53 41 83.5t96 30.5t96 -30.5t41 -83.5q0 -54 -41 -84.5t-96 -30.5zM1312 -450q-58 0 -94 7v163q16 -4 41.5 -7t52.5 -3q83 0 122 31.5t49.5 78t10.5 92.5
v1150h217v-1157q0 -66 -13.5 -129t-54 -114t-120 -81.5t-211.5 -30.5z" />
    <glyph glyph-name="uni1E48" unicode="&#x1e48;" horiz-adv-x="1384" 
d="M346 0h-211v1475h346l556 -1311v1311h212v-1475h-351l-552 1302v-1302zM404 -274v95h599v-95h-599z" />
    <glyph glyph-name="Ntilde" unicode="&#xd1;" horiz-adv-x="1384" 
d="M346 0h-211v1475h346l556 -1311v1311h212v-1475h-351l-552 1302v-1302zM1012 1726q-1 -37 -19 -79.5t-56 -72.5t-100 -30q-47 0 -81.5 19t-58.5 38q-22 18 -45.5 32t-54.5 14q-39 0 -54 -24.5t-17 -53.5h-119q2 39 22.5 82t61 73t101.5 30q47 0 80 -18.5t56 -37.5
q23 -18 47.5 -33t51.5 -15q38 0 51.5 23t14.5 53h119z" />
    <glyph glyph-name="O" unicode="O" horiz-adv-x="1419" 
d="M709 -21q-175 0 -314 89t-219.5 259t-80.5 412t80.5 411t219.5 256.5t314 87.5q176 0 315.5 -87.5t219.5 -256.5t80 -411t-80.5 -412t-220 -259t-314.5 -89zM709 164q113 0 202.5 62t140.5 189t51 324t-51.5 323t-141 186t-201.5 60t-201 -60t-141 -186t-52 -323
t52 -324.5t141 -189t201 -61.5z" />
    <glyph glyph-name="Oacute" unicode="&#xd3;" horiz-adv-x="1419" 
d="M709 -21q-175 0 -314 89t-219.5 259t-80.5 412t80.5 411t219.5 256.5t314 87.5q176 0 315.5 -87.5t219.5 -256.5t80 -411t-80.5 -412t-220 -259t-314.5 -89zM709 164q113 0 202.5 62t140.5 189t51 324t-51.5 323t-141 186t-201.5 60t-201 -60t-141 -186t-52 -323
t52 -324.5t141 -189t201 -61.5zM571 1553l279 190h194l-297 -190h-176z" />
    <glyph glyph-name="Obreve" unicode="&#x14e;" horiz-adv-x="1419" 
d="M709 -21q-175 0 -314 89t-219.5 259t-80.5 412t80.5 411t219.5 256.5t314 87.5q176 0 315.5 -87.5t219.5 -256.5t80 -411t-80.5 -412t-220 -259t-314.5 -89zM709 164q113 0 202.5 62t140.5 189t51 324t-51.5 323t-141 186t-201.5 60t-201 -60t-141 -186t-52 -323
t52 -324.5t141 -189t201 -61.5zM452 1722h132q0 -40 33.5 -69.5t91.5 -29.5t91.5 29.5t33.5 69.5h132q0 -83 -73.5 -135.5t-183.5 -52.5t-183.5 52.5t-73.5 135.5z" />
    <glyph glyph-name="uni01D1" unicode="&#x1d1;" horiz-adv-x="1419" 
d="M709 -21q-175 0 -314 89t-219.5 259t-80.5 412t80.5 411t219.5 256.5t314 87.5q176 0 315.5 -87.5t219.5 -256.5t80 -411t-80.5 -412t-220 -259t-314.5 -89zM709 164q113 0 202.5 62t140.5 189t51 324t-51.5 323t-141 186t-201.5 60t-201 -60t-141 -186t-52 -323
t52 -324.5t141 -189t201 -61.5zM409 1740h151l149 -129l148 129h153l-223 -188h-156z" />
    <glyph glyph-name="Ocircumflex" unicode="&#xd4;" horiz-adv-x="1419" 
d="M709 -21q-175 0 -314 89t-219.5 259t-80.5 412t80.5 411t219.5 256.5t314 87.5q176 0 315.5 -87.5t219.5 -256.5t80 -411t-80.5 -412t-220 -259t-314.5 -89zM709 164q113 0 202.5 62t140.5 189t51 324t-51.5 323t-141 186t-201.5 60t-201 -60t-141 -186t-52 -323
t52 -324.5t141 -189t201 -61.5zM409 1552l222 188h156l223 -188h-153l-148 128l-149 -128h-151z" />
    <glyph glyph-name="uni1ED0" unicode="&#x1ed0;" horiz-adv-x="1419" 
d="M709 -21q-175 0 -314 89t-219.5 259t-80.5 412t80.5 411t219.5 256.5t314 87.5q176 0 315.5 -87.5t219.5 -256.5t80 -411t-80.5 -412t-220 -259t-314.5 -89zM709 164q113 0 202.5 62t140.5 189t51 324t-51.5 323t-141 186t-201.5 60t-201 -60t-141 -186t-52 -323
t52 -324.5t141 -189t201 -61.5zM907 1701l219 191h164l-236 -191h-147zM408 1552l222 188h157l222 -188h-152l-148 128l-150 -128h-151z" />
    <glyph glyph-name="uni1ED8" unicode="&#x1ed8;" horiz-adv-x="1419" 
d="M709 -21q-175 0 -314 89t-219.5 259t-80.5 412t80.5 411t219.5 256.5t314 87.5q176 0 315.5 -87.5t219.5 -256.5t80 -411t-80.5 -412t-220 -259t-314.5 -89zM709 164q113 0 202.5 62t140.5 189t51 324t-51.5 323t-141 186t-201.5 60t-201 -60t-141 -186t-52 -323
t52 -324.5t141 -189t201 -61.5zM709 -365q-55 0 -96 30t-41 83q0 54 41 84t96 30q54 0 95 -30t41 -84q0 -53 -41 -83t-95 -30zM409 1552l222 188h156l223 -188h-153l-148 128l-149 -128h-151z" />
    <glyph glyph-name="uni1ED2" unicode="&#x1ed2;" horiz-adv-x="1419" 
d="M709 -21q-175 0 -314 89t-219.5 259t-80.5 412t80.5 411t219.5 256.5t314 87.5q176 0 315.5 -87.5t219.5 -256.5t80 -411t-80.5 -412t-220 -259t-314.5 -89zM709 164q113 0 202.5 62t140.5 189t51 324t-51.5 323t-141 186t-201.5 60t-201 -60t-141 -186t-52 -323
t52 -324.5t141 -189t201 -61.5zM1144 1701h-148l-235 191h163zM410 1552l222 188h156l223 -188h-153l-148 128l-149 -128h-151z" />
    <glyph glyph-name="uni1ED4" unicode="&#x1ed4;" horiz-adv-x="1419" 
d="M709 -21q-175 0 -314 89t-219.5 259t-80.5 412t80.5 411t219.5 256.5t314 87.5q176 0 315.5 -87.5t219.5 -256.5t80 -411t-80.5 -412t-220 -259t-314.5 -89zM709 164q113 0 202.5 62t140.5 189t51 324t-51.5 323t-141 186t-201.5 60t-201 -60t-141 -186t-52 -323
t52 -324.5t141 -189t201 -61.5zM804 1955q108 0 194.5 -8.5t136.5 -35t50 -80.5q0 -71 -75.5 -102t-177.5 -31l-25 63q34 1 73 7t66.5 19t27.5 36q0 38 -73 47.5t-197 9.5v75zM410 1552l222 188h156l223 -188h-153l-148 128l-149 -128h-151z" />
    <glyph glyph-name="uni1ED6" unicode="&#x1ed6;" horiz-adv-x="1419" 
d="M709 -21q-175 0 -314 89t-219.5 259t-80.5 412t80.5 411t219.5 256.5t314 87.5q176 0 315.5 -87.5t219.5 -256.5t80 -411t-80.5 -412t-220 -259t-314.5 -89zM709 164q113 0 202.5 62t140.5 189t51 324t-51.5 323t-141 186t-201.5 60t-201 -60t-141 -186t-52 -323
t52 -324.5t141 -189t201 -61.5zM409 1552l222 188h156l223 -188h-153l-148 128l-149 -128h-151zM1017 1991q-1 -37 -19 -79.5t-56 -72.5t-100 -30q-47 0 -81.5 19t-58.5 38q-22 18 -45.5 32t-54.5 14q-39 0 -54 -24.5t-17 -53.5h-119q2 39 22.5 82t61 73t101.5 30
q47 0 80 -18.5t56 -37.5q23 -18 47.5 -33t51.5 -15q38 0 51.5 23t14.5 53h119z" />
    <glyph glyph-name="uni020C" unicode="&#x20c;" horiz-adv-x="1419" 
d="M709 -21q-175 0 -314 89t-219.5 259t-80.5 412t80.5 411t219.5 256.5t314 87.5q176 0 315.5 -87.5t219.5 -256.5t80 -411t-80.5 -412t-220 -259t-314.5 -89zM709 164q113 0 202.5 62t140.5 189t51 324t-51.5 323t-141 186t-201.5 60t-201 -60t-141 -186t-52 -323
t52 -324.5t141 -189t201 -61.5zM939 1552h-129l-203 192h151zM624 1552h-130l-217 192h151z" />
    <glyph glyph-name="Odieresis" unicode="&#xd6;" horiz-adv-x="1419" 
d="M709 -21q-175 0 -314 89t-219.5 259t-80.5 412t80.5 411t219.5 256.5t314 87.5q176 0 315.5 -87.5t219.5 -256.5t80 -411t-80.5 -412t-220 -259t-314.5 -89zM709 164q113 0 202.5 62t140.5 189t51 324t-51.5 323t-141 186t-201.5 60t-201 -60t-141 -186t-52 -323
t52 -324.5t141 -189t201 -61.5zM500 1555q-51 0 -89 28.5t-38 77.5q0 50 38 78t89 28q50 0 88 -28t38 -78t-38 -78t-88 -28zM920 1555q-51 0 -88.5 28.5t-37.5 77.5q0 50 37.5 78t88.5 28t89 -28t38 -78t-38 -78t-89 -28z" />
    <glyph glyph-name="uni022A" unicode="&#x22a;" horiz-adv-x="1419" 
d="M709 -21q-175 0 -314 89t-219.5 259t-80.5 412t80.5 411t219.5 256.5t314 87.5q176 0 315.5 -87.5t219.5 -256.5t80 -411t-80.5 -412t-220 -259t-314.5 -89zM709 164q113 0 202.5 62t140.5 189t51 324t-51.5 323t-141 186t-201.5 60t-201 -60t-141 -186t-52 -323
t52 -324.5t141 -189t201 -61.5zM500 1555q-51 0 -89 28.5t-38 77.5q0 50 38 78t89 28q50 0 88 -28t38 -78t-38 -78t-88 -28zM920 1555q-51 0 -88.5 28.5t-37.5 77.5q0 50 37.5 78t88.5 28t89 -28t38 -78t-38 -78t-89 -28zM432 1876v94h553v-94h-553z" />
    <glyph glyph-name="uni0230" unicode="&#x230;" horiz-adv-x="1419" 
d="M709 -21q-175 0 -314 89t-219.5 259t-80.5 412t80.5 411t219.5 256.5t314 87.5q176 0 315.5 -87.5t219.5 -256.5t80 -411t-80.5 -412t-220 -259t-314.5 -89zM709 164q113 0 202.5 62t140.5 189t51 324t-51.5 323t-141 186t-201.5 60t-201 -60t-141 -186t-52 -323
t52 -324.5t141 -189t201 -61.5zM712 1568q-55 0 -96 30.5t-41 83.5q0 54 41 84t96 30t95.5 -30t40.5 -84t-40.5 -84t-95.5 -30zM434 1931v94h553v-94h-553z" />
    <glyph glyph-name="uni1ECC" unicode="&#x1ecc;" horiz-adv-x="1419" 
d="M709 -21q-175 0 -314 89t-219.5 259t-80.5 412t80.5 411t219.5 256.5t314 87.5q176 0 315.5 -87.5t219.5 -256.5t80 -411t-80.5 -412t-220 -259t-314.5 -89zM709 164q113 0 202.5 62t140.5 189t51 324t-51.5 323t-141 186t-201.5 60t-201 -60t-141 -186t-52 -323
t52 -324.5t141 -189t201 -61.5zM709 -365q-55 0 -96 30t-41 83q0 54 41 84t96 30q54 0 95 -30t41 -84q0 -53 -41 -83t-95 -30z" />
    <glyph glyph-name="Ograve" unicode="&#xd2;" horiz-adv-x="1419" 
d="M709 -21q-175 0 -314 89t-219.5 259t-80.5 412t80.5 411t219.5 256.5t314 87.5q176 0 315.5 -87.5t219.5 -256.5t80 -411t-80.5 -412t-220 -259t-314.5 -89zM709 164q113 0 202.5 62t140.5 189t51 324t-51.5 323t-141 186t-201.5 60t-201 -60t-141 -186t-52 -323
t52 -324.5t141 -189t201 -61.5zM852 1553h-175l-298 190h194z" />
    <glyph glyph-name="uni1ECE" unicode="&#x1ece;" horiz-adv-x="1419" 
d="M709 -21q-175 0 -314 89t-219.5 259t-80.5 412t80.5 411t219.5 256.5t314 87.5q176 0 315.5 -87.5t219.5 -256.5t80 -411t-80.5 -412t-220 -259t-314.5 -89zM709 164q113 0 202.5 62t140.5 189t51 324t-51.5 323t-141 186t-201.5 60t-201 -60t-141 -186t-52 -323
t52 -324.5t141 -189t201 -61.5zM498 1777q109 0 195.5 -8.5t136.5 -35t50 -80.5q0 -71 -76 -102.5t-177 -31.5l-25 64q34 1 73 7t66 19t27 36q0 38 -72.5 47.5t-197.5 9.5v75z" />
    <glyph glyph-name="Ohorn" unicode="&#x1a0;" horiz-adv-x="1423" 
d="M709 -21q-175 0 -314 89t-219.5 259t-80.5 412t80.5 411t219.5 256.5t314 87.5q218 0 373 -129q157 11 157 257h138q0 -150 -54.5 -237t-150.5 -115q72 -96 112 -229t40 -302q0 -242 -80.5 -412t-220 -259t-314.5 -89zM709 164q113 0 202.5 62t140.5 189t51 324
t-51.5 323t-141 186t-201.5 60t-201 -60t-141 -186t-52 -323t52 -324.5t141 -189t201 -61.5z" />
    <glyph glyph-name="uni1EDA" unicode="&#x1eda;" horiz-adv-x="1423" 
d="M709 -21q-175 0 -314 89t-219.5 259t-80.5 412t80.5 411t219.5 256.5t314 87.5q218 0 373 -129q157 11 157 257h138q0 -150 -54.5 -237t-150.5 -115q72 -96 112 -229t40 -302q0 -242 -80.5 -412t-220 -259t-314.5 -89zM709 164q113 0 202.5 62t140.5 189t51 324
t-51.5 323t-141 186t-201.5 60t-201 -60t-141 -186t-52 -323t52 -324.5t141 -189t201 -61.5zM572 1553l279 190h194l-297 -190h-176z" />
    <glyph glyph-name="uni1EE2" unicode="&#x1ee2;" horiz-adv-x="1423" 
d="M709 -21q-175 0 -314 89t-219.5 259t-80.5 412t80.5 411t219.5 256.5t314 87.5q218 0 373 -129q157 11 157 257h138q0 -150 -54.5 -237t-150.5 -115q72 -96 112 -229t40 -302q0 -242 -80.5 -412t-220 -259t-314.5 -89zM709 164q113 0 202.5 62t140.5 189t51 324
t-51.5 323t-141 186t-201.5 60t-201 -60t-141 -186t-52 -323t52 -324.5t141 -189t201 -61.5zM710 -365q-55 0 -96 30t-41 83q0 54 41 84t96 30q54 0 95 -30t41 -84q0 -53 -41 -83t-95 -30z" />
    <glyph glyph-name="uni1EDC" unicode="&#x1edc;" horiz-adv-x="1423" 
d="M709 -21q-175 0 -314 89t-219.5 259t-80.5 412t80.5 411t219.5 256.5t314 87.5q218 0 373 -129q157 11 157 257h138q0 -150 -54.5 -237t-150.5 -115q72 -96 112 -229t40 -302q0 -242 -80.5 -412t-220 -259t-314.5 -89zM709 164q113 0 202.5 62t140.5 189t51 324
t-51.5 323t-141 186t-201.5 60t-201 -60t-141 -186t-52 -323t52 -324.5t141 -189t201 -61.5zM853 1553h-175l-298 190h194z" />
    <glyph glyph-name="uni1EDE" unicode="&#x1ede;" horiz-adv-x="1423" 
d="M709 -21q-175 0 -314 89t-219.5 259t-80.5 412t80.5 411t219.5 256.5t314 87.5q218 0 373 -129q157 11 157 257h138q0 -150 -54.5 -237t-150.5 -115q72 -96 112 -229t40 -302q0 -242 -80.5 -412t-220 -259t-314.5 -89zM709 164q113 0 202.5 62t140.5 189t51 324
t-51.5 323t-141 186t-201.5 60t-201 -60t-141 -186t-52 -323t52 -324.5t141 -189t201 -61.5zM499 1777q109 0 195.5 -8.5t136.5 -35t50 -80.5q0 -71 -76 -102.5t-177 -31.5l-25 64q34 1 73 7t66 19t27 36q0 38 -72.5 47.5t-197.5 9.5v75z" />
    <glyph glyph-name="uni1EE0" unicode="&#x1ee0;" horiz-adv-x="1423" 
d="M709 -21q-175 0 -314 89t-219.5 259t-80.5 412t80.5 411t219.5 256.5t314 87.5q218 0 373 -129q157 11 157 257h138q0 -150 -54.5 -237t-150.5 -115q72 -96 112 -229t40 -302q0 -242 -80.5 -412t-220 -259t-314.5 -89zM709 164q113 0 202.5 62t140.5 189t51 324
t-51.5 323t-141 186t-201.5 60t-201 -60t-141 -186t-52 -323t52 -324.5t141 -189t201 -61.5zM1018 1726q-1 -37 -19 -79.5t-56 -72.5t-100 -30q-47 0 -81.5 19t-58.5 38q-22 18 -45.5 32t-54.5 14q-39 0 -54 -24.5t-17 -53.5h-119q2 39 22.5 82t61 73t101.5 30
q47 0 80 -18.5t56 -37.5q23 -18 47.5 -33t51.5 -15q38 0 51.5 23t14.5 53h119z" />
    <glyph glyph-name="Ohungarumlaut" unicode="&#x150;" horiz-adv-x="1419" 
d="M709 -21q-175 0 -314 89t-219.5 259t-80.5 412t80.5 411t219.5 256.5t314 87.5q176 0 315.5 -87.5t219.5 -256.5t80 -411t-80.5 -412t-220 -259t-314.5 -89zM709 164q113 0 202.5 62t140.5 189t51 324t-51.5 323t-141 186t-201.5 60t-201 -60t-141 -186t-52 -323
t52 -324.5t141 -189t201 -61.5zM484 1553l234 190h159l-256 -190h-137zM786 1553l234 190h158l-256 -190h-136z" />
    <glyph glyph-name="uni020E" unicode="&#x20e;" horiz-adv-x="1419" 
d="M709 -21q-175 0 -314 89t-219.5 259t-80.5 412t80.5 411t219.5 256.5t314 87.5q176 0 315.5 -87.5t219.5 -256.5t80 -411t-80.5 -412t-220 -259t-314.5 -89zM709 164q113 0 202.5 62t140.5 189t51 324t-51.5 323t-141 186t-201.5 60t-201 -60t-141 -186t-52 -323
t52 -324.5t141 -189t201 -61.5zM452 1543q0 82 73.5 131.5t183.5 49.5t183.5 -49.5t73.5 -131.5h-131q0 38 -34 65.5t-92 27.5t-92 -27.5t-34 -65.5h-131z" />
    <glyph glyph-name="Omacron" unicode="&#x14c;" horiz-adv-x="1419" 
d="M709 -21q-175 0 -314 89t-219.5 259t-80.5 412t80.5 411t219.5 256.5t314 87.5q176 0 315.5 -87.5t219.5 -256.5t80 -411t-80.5 -412t-220 -259t-314.5 -89zM709 164q113 0 202.5 62t140.5 189t51 324t-51.5 323t-141 186t-201.5 60t-201 -60t-141 -186t-52 -323
t52 -324.5t141 -189t201 -61.5zM432 1610v94h553v-94h-553z" />
    <glyph glyph-name="uni1E52" unicode="&#x1e52;" horiz-adv-x="1419" 
d="M709 -21q-175 0 -314 89t-219.5 259t-80.5 412t80.5 411t219.5 256.5t314 87.5q176 0 315.5 -87.5t219.5 -256.5t80 -411t-80.5 -412t-220 -259t-314.5 -89zM709 164q113 0 202.5 62t140.5 189t51 324t-51.5 323t-141 186t-201.5 60t-201 -60t-141 -186t-52 -323
t52 -324.5t141 -189t201 -61.5zM432 1610v94h553v-94h-553zM571 1782l279 190h194l-297 -190h-176z" />
    <glyph glyph-name="uni1E50" unicode="&#x1e50;" horiz-adv-x="1419" 
d="M709 -21q-175 0 -314 89t-219.5 259t-80.5 412t80.5 411t219.5 256.5t314 87.5q176 0 315.5 -87.5t219.5 -256.5t80 -411t-80.5 -412t-220 -259t-314.5 -89zM709 164q113 0 202.5 62t140.5 189t51 324t-51.5 323t-141 186t-201.5 60t-201 -60t-141 -186t-52 -323
t52 -324.5t141 -189t201 -61.5zM432 1610v94h553v-94h-553zM852 1782h-175l-298 190h194z" />
    <glyph glyph-name="uni01EA" unicode="&#x1ea;" horiz-adv-x="1419" 
d="M709 -21q-175 0 -314 89t-219.5 259t-80.5 412t80.5 411t219.5 256.5t314 87.5q176 0 315.5 -87.5t219.5 -256.5t80 -411q0 -282 -109 -466t-286 -254q-34 -31 -70 -72.5t-60.5 -82.5t-24.5 -73q0 -43 28 -60.5t72 -17.5q19 0 41 2t39 5v-109q-20 -3 -44.5 -5t-48.5 -2
q-87 0 -151 36t-64 120q0 58 37.5 116.5t84.5 104.5q-29 -2 -59 -2zM709 164q113 0 202.5 62t140.5 189t51 324t-51.5 323t-141 186t-201.5 60t-201 -60t-141 -186t-52 -323t52 -324.5t141 -189t201 -61.5z" />
    <glyph glyph-name="Oslash" unicode="&#xd8;" horiz-adv-x="1419" 
d="M709 -21q-181 0 -321 94l-97 -161l-115 65l110 183q-89 97 -140 243t-51 336q0 242 80.5 411t219.5 256.5t314 87.5q181 0 320 -90l96 160l117 -65l-109 -182q89 -97 140 -242t51 -336q0 -242 -80.5 -412t-220 -259t-314.5 -89zM315 739q0 -126 22 -223t62 -167l530 886
q-92 73 -220 73q-112 0 -201 -60t-141 -186t-52 -323zM709 164q113 0 202.5 62t140.5 189t51 324q0 126 -22 223t-61 166l-532 -887q93 -77 221 -77z" />
    <glyph glyph-name="Oslashacute" unicode="&#x1fe;" horiz-adv-x="1419" 
d="M709 -21q-181 0 -321 94l-97 -161l-115 65l110 183q-89 97 -140 243t-51 336q0 242 80.5 411t219.5 256.5t314 87.5q181 0 320 -90l96 160l117 -65l-109 -182q89 -97 140 -242t51 -336q0 -242 -80.5 -412t-220 -259t-314.5 -89zM315 739q0 -126 22 -223t62 -167l530 886
q-92 73 -220 73q-112 0 -201 -60t-141 -186t-52 -323zM709 164q113 0 202.5 62t140.5 189t51 324q0 126 -22 223t-61 166l-532 -887q93 -77 221 -77zM567 1553l279 190h194l-297 -190h-176z" />
    <glyph glyph-name="Otilde" unicode="&#xd5;" horiz-adv-x="1419" 
d="M709 -21q-175 0 -314 89t-219.5 259t-80.5 412t80.5 411t219.5 256.5t314 87.5q176 0 315.5 -87.5t219.5 -256.5t80 -411t-80.5 -412t-220 -259t-314.5 -89zM709 164q113 0 202.5 62t140.5 189t51 324t-51.5 323t-141 186t-201.5 60t-201 -60t-141 -186t-52 -323
t52 -324.5t141 -189t201 -61.5zM1017 1726q-1 -37 -19 -79.5t-56 -72.5t-100 -30q-47 0 -81.5 19t-58.5 38q-22 18 -45.5 32t-54.5 14q-39 0 -54 -24.5t-17 -53.5h-119q2 39 22.5 82t61 73t101.5 30q47 0 80 -18.5t56 -37.5q23 -18 47.5 -33t51.5 -15q38 0 51.5 23t14.5 53
h119z" />
    <glyph glyph-name="uni1E4C" unicode="&#x1e4c;" horiz-adv-x="1419" 
d="M709 -21q-175 0 -314 89t-219.5 259t-80.5 412t80.5 411t219.5 256.5t314 87.5q176 0 315.5 -87.5t219.5 -256.5t80 -411t-80.5 -412t-220 -259t-314.5 -89zM709 164q113 0 202.5 62t140.5 189t51 324t-51.5 323t-141 186t-201.5 60t-201 -60t-141 -186t-52 -323
t52 -324.5t141 -189t201 -61.5zM1000.81 1712.93q-0.949219 -35.1113 -18.0303 -75.4434q-17.082 -40.3311 -53.1426 -68.8008q-36.0615 -28.4688 -94.8975 -28.4688q-44.6016 0 -77.3418 18.0303q-32.7393 18.0303 -55.5146 36.0615q-20.8779 17.0811 -43.1787 30.3672
q-22.3008 13.2852 -51.7188 13.2852q-37.0098 0 -51.2451 -23.25q-14.2344 -23.25 -16.1318 -50.7695h-112.929q1.89844 37.0098 21.3525 77.8154q19.4531 40.8057 57.8867 69.2754t96.3213 28.4697q44.6016 0 75.918 -17.5566q31.3164 -17.5557 53.1426 -35.5859
q21.8262 -17.082 45.0762 -31.3164t48.8721 -14.2344q36.0615 0 48.8721 21.8262q12.8115 21.8262 13.7607 50.2949h112.928zM583.407 1809.74l252.725 172.105h175.729l-269.029 -172.105h-159.425z" />
    <glyph glyph-name="uni1E4E" unicode="&#x1e4e;" horiz-adv-x="1419" 
d="M709 -21q-175 0 -314 89t-219.5 259t-80.5 412t80.5 411t219.5 256.5t314 87.5q176 0 315.5 -87.5t219.5 -256.5t80 -411t-80.5 -412t-220 -259t-314.5 -89zM709 164q113 0 202.5 62t140.5 189t51 324t-51.5 323t-141 186t-201.5 60t-201 -60t-141 -186t-52 -323
t52 -324.5t141 -189t201 -61.5zM1017 1726q-1 -37 -19 -79.5t-56 -72.5t-100 -30q-47 0 -81.5 19t-58.5 38q-22 18 -45.5 32t-54.5 14q-39 0 -54 -24.5t-17 -53.5h-119q2 39 22.5 82t61 73t101.5 30q47 0 80 -18.5t56 -37.5q23 -18 47.5 -33t51.5 -15q38 0 51.5 23t14.5 53
h119zM500 1833q-51 0 -89 28.5t-38 77.5q0 50 38 78t89 28q50 0 88 -28t38 -78t-38 -78t-88 -28zM920 1833q-51 0 -88.5 28.5t-37.5 77.5q0 50 37.5 78t88.5 28t89 -28t38 -78t-38 -78t-89 -28z" />
    <glyph glyph-name="uni022C" unicode="&#x22c;" horiz-adv-x="1419" 
d="M709 -21q-175 0 -314 89t-219.5 259t-80.5 412t80.5 411t219.5 256.5t314 87.5q176 0 315.5 -87.5t219.5 -256.5t80 -411t-80.5 -412t-220 -259t-314.5 -89zM709 164q113 0 202.5 62t140.5 189t51 324t-51.5 323t-141 186t-201.5 60t-201 -60t-141 -186t-52 -323
t52 -324.5t141 -189t201 -61.5zM1017 1726q-1 -37 -19 -79.5t-56 -72.5t-100 -30q-47 0 -81.5 19t-58.5 38q-22 18 -45.5 32t-54.5 14q-39 0 -54 -24.5t-17 -53.5h-119q2 39 22.5 82t61 73t101.5 30q47 0 80 -18.5t56 -37.5q23 -18 47.5 -33t51.5 -15q38 0 51.5 23t14.5 53
h119zM432 1888v94h553v-94h-553z" />
    <glyph glyph-name="OE" unicode="&#x152;" horiz-adv-x="2068" 
d="M697 -21q-175 0 -311 89t-213.5 259t-77.5 412t77.5 411t213.5 256.5t311 87.5q144 0 247 -53t153 -131v165h836v-180h-627v-465h548v-180h-548v-470h627v-180h-836v178q-50 -83 -153 -141t-247 -58zM697 164q113 0 203.5 62t142.5 189t52 324t-52.5 323t-143 186
t-202.5 60q-168 0 -275 -136.5t-107 -432.5t107 -435.5t275 -139.5z" />
    <glyph glyph-name="P" unicode="P" horiz-adv-x="1179" 
d="M352 0h-217v1475h444q170 0 285.5 -64t174 -172.5t58.5 -242.5t-60 -246.5t-175.5 -180.5t-282.5 -68h-227v-501zM554 1295h-202v-614h202q159 0 242 85.5t83 229.5t-81 221.5t-244 77.5z" />
    <glyph glyph-name="Thorn" unicode="&#xde;" horiz-adv-x="1135" 
d="M135 0v1473h216v-325h219q139 0 245 -47.5t165.5 -141t59.5 -230.5q0 -138 -60.5 -231.5t-166.5 -140.5t-243 -47h-219v-310h-216zM549 967h-198v-477h198q119 0 197.5 59t78.5 180q0 123 -79 180.5t-197 57.5z" />
    <glyph glyph-name="Q" unicode="Q" horiz-adv-x="1419" 
d="M1077 -204l-64 -147q-17 3 -60.5 12t-99 30.5t-108.5 58.5t-89.5 95t-40.5 141q-152 23 -269 117.5t-184 255t-67 380.5q0 242 80.5 411t219.5 256.5t314 87.5q176 0 315.5 -87.5t219.5 -256.5t80 -411q0 -220 -67 -380.5t-185 -255.5t-269 -117q7 -51 43 -86t83 -57
t88.5 -33t59.5 -14zM709 164q113 0 202.5 62t140.5 189t51 324t-51.5 323t-141 186t-201.5 60t-201 -60t-141 -186t-52 -323t52 -324.5t141 -189t201 -61.5z" />
    <glyph glyph-name="R" unicode="R" horiz-adv-x="1218" 
d="M135 0v1475h540q431 0 431 -396q0 -116 -44.5 -198t-107 -126.5t-117.5 -50.5q56 -4 109 -29.5t88 -80t35 -146.5v-317q0 -100 26 -131h-219q-9 15 -16 50t-7 81v291q0 190 -221 190h-285v-612h-212zM624 1295h-277v-503h287q104 0 176.5 73.5t72.5 195.5t-67 178
t-192 56z" />
    <glyph glyph-name="R.ss01" horiz-adv-x="1226" 
d="M681 1475q213 0 323 -107.5t110 -305.5q0 -176 -76.5 -276t-193.5 -139l252 -647h-224l-228 620h-297v-620h-212v1475h546zM664 796q90 0 158 63t68 195q0 125 -70.5 185.5t-195.5 60.5h-277v-504h317z" />
    <glyph glyph-name="Racute" unicode="&#x154;" horiz-adv-x="1218" 
d="M135 0v1475h540q431 0 431 -396q0 -116 -44.5 -198t-107 -126.5t-117.5 -50.5q56 -4 109 -29.5t88 -80t35 -146.5v-317q0 -100 26 -131h-219q-9 15 -16 50t-7 81v291q0 190 -221 190h-285v-612h-212zM624 1295h-277v-503h287q104 0 176.5 73.5t72.5 195.5t-67 178
t-192 56zM422 1553l279 190h194l-297 -190h-176z" />
    <glyph glyph-name="Racute.ss01" horiz-adv-x="1226" 
d="M681 1475q213 0 323 -107.5t110 -305.5q0 -176 -76.5 -276t-193.5 -139l252 -647h-224l-228 620h-297v-620h-212v1475h546zM664 796q90 0 158 63t68 195q0 125 -70.5 185.5t-195.5 60.5h-277v-504h317zM451 1553l279 190h194l-297 -190h-176z" />
    <glyph glyph-name="Rcaron" unicode="&#x158;" horiz-adv-x="1218" 
d="M135 0v1475h540q431 0 431 -396q0 -116 -44.5 -198t-107 -126.5t-117.5 -50.5q56 -4 109 -29.5t88 -80t35 -146.5v-317q0 -100 26 -131h-219q-9 15 -16 50t-7 81v291q0 190 -221 190h-285v-612h-212zM624 1295h-277v-503h287q104 0 176.5 73.5t72.5 195.5t-67 178
t-192 56zM260 1740h151l149 -129l148 129h153l-223 -188h-156z" />
    <glyph glyph-name="Rcaron.ss01" horiz-adv-x="1226" 
d="M681 1475q213 0 323 -107.5t110 -305.5q0 -176 -76.5 -276t-193.5 -139l252 -647h-224l-228 620h-297v-620h-212v1475h546zM664 796q90 0 158 63t68 195q0 125 -70.5 185.5t-195.5 60.5h-277v-504h317zM288 1740h151l149 -129l148 129h153l-223 -188h-156z" />
    <glyph glyph-name="uni0156" unicode="&#x156;" horiz-adv-x="1218" 
d="M135 0v1475h540q431 0 431 -396q0 -116 -44.5 -198t-107 -126.5t-117.5 -50.5q56 -4 109 -29.5t88 -80t35 -146.5v-317q0 -100 26 -131h-219q-9 15 -16 50t-7 81v291q0 190 -221 190h-285v-612h-212zM624 1295h-277v-503h287q104 0 176.5 73.5t72.5 195.5t-67 178
t-192 56zM600 -251q-38 0 -62.5 22t-24.5 58q0 42 32 63.5t72 21.5q37 0 72.5 -24t35.5 -82q0 -69 -27 -119t-66.5 -82.5t-77.5 -50.5l-16 40q43 18 85.5 64t42.5 116q-6 -12 -25.5 -19.5t-40.5 -7.5z" />
    <glyph glyph-name="uni0156.ss01" horiz-adv-x="1226" 
d="M681 1475q213 0 323 -107.5t110 -305.5q0 -176 -76.5 -276t-193.5 -139l252 -647h-224l-228 620h-297v-620h-212v1475h546zM664 796q90 0 158 63t68 195q0 125 -70.5 185.5t-195.5 60.5h-277v-504h317zM569 -251q-38 0 -62.5 22t-24.5 58q0 42 32 63.5t72 21.5
q37 0 72.5 -24t35.5 -82q0 -69 -27 -119t-66.5 -82.5t-77.5 -50.5l-16 40q43 18 85.5 64t42.5 116q-6 -12 -25.5 -19.5t-40.5 -7.5z" />
    <glyph glyph-name="uni0210" unicode="&#x210;" horiz-adv-x="1218" 
d="M135 0v1475h540q431 0 431 -396q0 -116 -44.5 -198t-107 -126.5t-117.5 -50.5q56 -4 109 -29.5t88 -80t35 -146.5v-317q0 -100 26 -131h-219q-9 15 -16 50t-7 81v291q0 190 -221 190h-285v-612h-212zM624 1295h-277v-503h287q104 0 176.5 73.5t72.5 195.5t-67 178
t-192 56zM790 1552h-129l-203 192h151zM475 1552h-130l-217 192h151z" />
    <glyph glyph-name="uni0210.ss01" horiz-adv-x="1226" 
d="M681 1475q213 0 323 -107.5t110 -305.5q0 -176 -76.5 -276t-193.5 -139l252 -647h-224l-228 620h-297v-620h-212v1475h546zM664 796q90 0 158 63t68 195q0 125 -70.5 185.5t-195.5 60.5h-277v-504h317zM819 1552h-129l-203 192h151zM504 1552h-130l-217 192h151z" />
    <glyph glyph-name="uni1E5A" unicode="&#x1e5a;" horiz-adv-x="1218" 
d="M135 0v1475h540q431 0 431 -396q0 -116 -44.5 -198t-107 -126.5t-117.5 -50.5q56 -4 109 -29.5t88 -80t35 -146.5v-317q0 -100 26 -131h-219q-9 15 -16 50t-7 81v291q0 190 -221 190h-285v-612h-212zM624 1295h-277v-503h287q104 0 176.5 73.5t72.5 195.5t-67 178
t-192 56zM620 -365q-55 0 -96 30t-41 83q0 54 41 84t96 30q54 0 95 -30t41 -84q0 -53 -41 -83t-95 -30z" />
    <glyph glyph-name="uni1E5A.ss01" horiz-adv-x="1226" 
d="M681 1475q213 0 323 -107.5t110 -305.5q0 -176 -76.5 -276t-193.5 -139l252 -647h-224l-228 620h-297v-620h-212v1475h546zM664 796q90 0 158 63t68 195q0 125 -70.5 185.5t-195.5 60.5h-277v-504h317zM589 -365q-55 0 -96 30t-41 83q0 54 41 84t96 30q54 0 95 -30
t41 -84q0 -53 -41 -83t-95 -30z" />
    <glyph glyph-name="uni0212" unicode="&#x212;" horiz-adv-x="1218" 
d="M135 0v1475h540q431 0 431 -396q0 -116 -44.5 -198t-107 -126.5t-117.5 -50.5q56 -4 109 -29.5t88 -80t35 -146.5v-317q0 -100 26 -131h-219q-9 15 -16 50t-7 81v291q0 190 -221 190h-285v-612h-212zM624 1295h-277v-503h287q104 0 176.5 73.5t72.5 195.5t-67 178
t-192 56zM303 1543q0 82 73.5 131.5t183.5 49.5t183.5 -49.5t73.5 -131.5h-131q0 38 -34 65.5t-92 27.5t-92 -27.5t-34 -65.5h-131z" />
    <glyph glyph-name="uni0212.ss01" horiz-adv-x="1226" 
d="M681 1475q213 0 323 -107.5t110 -305.5q0 -176 -76.5 -276t-193.5 -139l252 -647h-224l-228 620h-297v-620h-212v1475h546zM664 796q90 0 158 63t68 195q0 125 -70.5 185.5t-195.5 60.5h-277v-504h317zM332 1543q0 82 73.5 131.5t183.5 49.5t183.5 -49.5t73.5 -131.5
h-131q0 38 -34 65.5t-92 27.5t-92 -27.5t-34 -65.5h-131z" />
    <glyph glyph-name="uni1E5E" unicode="&#x1e5e;" horiz-adv-x="1218" 
d="M135 0v1475h540q431 0 431 -396q0 -116 -44.5 -198t-107 -126.5t-117.5 -50.5q56 -4 109 -29.5t88 -80t35 -146.5v-317q0 -100 26 -131h-219q-9 15 -16 50t-7 81v291q0 190 -221 190h-285v-612h-212zM624 1295h-277v-503h287q104 0 176.5 73.5t72.5 195.5t-67 178
t-192 56zM321 -274v95h599v-95h-599z" />
    <glyph glyph-name="uni1E5E.ss01" horiz-adv-x="1226" 
d="M681 1475q213 0 323 -107.5t110 -305.5q0 -176 -76.5 -276t-193.5 -139l252 -647h-224l-228 620h-297v-620h-212v1475h546zM664 796q90 0 158 63t68 195q0 125 -70.5 185.5t-195.5 60.5h-277v-504h317zM289 -274v95h599v-95h-599z" />
    <glyph glyph-name="S" unicode="S" horiz-adv-x="1198" 
d="M599 -21q-233 0 -368.5 111t-135.5 333v65h217v-61q0 -136 73 -199.5t213 -63.5q144 0 218.5 48.5t74.5 156.5q0 77 -46.5 129.5t-128 90.5t-187.5 71q-120 37 -216 94.5t-152 144t-56 211.5q0 123 62 209t172 130.5t252 44.5q226 0 363.5 -105t137.5 -317v-70h-218v61
q0 129 -70.5 187.5t-208.5 58.5q-134 0 -206.5 -47.5t-72.5 -151.5q0 -78 46.5 -130t128 -89.5t185.5 -71.5q132 -44 227.5 -99t147.5 -137t52 -207q0 -189 -136.5 -293t-367.5 -104z" />
    <glyph glyph-name="Sacute" unicode="&#x15a;" horiz-adv-x="1198" 
d="M599 -21q-233 0 -368.5 111t-135.5 333v65h217v-61q0 -136 73 -199.5t213 -63.5q144 0 218.5 48.5t74.5 156.5q0 77 -46.5 129.5t-128 90.5t-187.5 71q-120 37 -216 94.5t-152 144t-56 211.5q0 123 62 209t172 130.5t252 44.5q226 0 363.5 -105t137.5 -317v-70h-218v61
q0 129 -70.5 187.5t-208.5 58.5q-134 0 -206.5 -47.5t-72.5 -151.5q0 -78 46.5 -130t128 -89.5t185.5 -71.5q132 -44 227.5 -99t147.5 -137t52 -207q0 -189 -136.5 -293t-367.5 -104zM460 1553l279 190h194l-297 -190h-176z" />
    <glyph glyph-name="uni1E64" unicode="&#x1e64;" horiz-adv-x="1198" 
d="M599 -21q-233 0 -368.5 111t-135.5 333v65h217v-61q0 -136 73 -199.5t213 -63.5q144 0 218.5 48.5t74.5 156.5q0 77 -46.5 129.5t-128 90.5t-187.5 71q-120 37 -216 94.5t-152 144t-56 211.5q0 123 62 209t172 130.5t252 44.5q226 0 363.5 -105t137.5 -317v-70h-218v61
q0 129 -70.5 187.5t-208.5 58.5q-134 0 -206.5 -47.5t-72.5 -151.5q0 -78 46.5 -130t128 -89.5t185.5 -71.5q132 -44 227.5 -99t147.5 -137t52 -207q0 -189 -136.5 -293t-367.5 -104zM474.822 1544.76l250.392 170.518h174.107l-266.546 -170.518h-157.953zM600.562 1803.01
q-52.334 0 -91.3477 29.0215q-39.0127 29.0225 -39.0127 79.4541q0 51.3828 39.0127 79.9287q39.0137 28.5469 91.3477 28.5469q52.335 0 90.8721 -28.5469q38.5381 -28.5459 38.5381 -79.9287q0 -51.3838 -38.5381 -79.9297q-38.5371 -28.5459 -90.8721 -28.5459z" />
    <glyph glyph-name="Scaron" unicode="&#x160;" horiz-adv-x="1198" 
d="M599 -21q-233 0 -368.5 111t-135.5 333v65h217v-61q0 -136 73 -199.5t213 -63.5q144 0 218.5 48.5t74.5 156.5q0 77 -46.5 129.5t-128 90.5t-187.5 71q-120 37 -216 94.5t-152 144t-56 211.5q0 123 62 209t172 130.5t252 44.5q226 0 363.5 -105t137.5 -317v-70h-218v61
q0 129 -70.5 187.5t-208.5 58.5q-134 0 -206.5 -47.5t-72.5 -151.5q0 -78 46.5 -130t128 -89.5t185.5 -71.5q132 -44 227.5 -99t147.5 -137t52 -207q0 -189 -136.5 -293t-367.5 -104zM297 1740h151l149 -129l148 129h153l-223 -188h-156z" />
    <glyph glyph-name="uni1E66" unicode="&#x1e66;" horiz-adv-x="1198" 
d="M599 -21q-233 0 -368.5 111t-135.5 333v65h217v-61q0 -136 73 -199.5t213 -63.5q144 0 218.5 48.5t74.5 156.5q0 77 -46.5 129.5t-128 90.5t-187.5 71q-120 37 -216 94.5t-152 144t-56 211.5q0 123 62 209t172 130.5t252 44.5q226 0 363.5 -105t137.5 -317v-70h-218v61
q0 129 -70.5 187.5t-208.5 58.5q-134 0 -206.5 -47.5t-72.5 -151.5q0 -78 46.5 -130t128 -89.5t185.5 -71.5q132 -44 227.5 -99t147.5 -137t52 -207q0 -189 -136.5 -293t-367.5 -104zM297 1740h151l149 -129l148 129h153l-223 -188h-156zM600 1833q-55 0 -96 30.5t-41 83.5
q0 54 41 84t96 30t95.5 -30t40.5 -84t-40.5 -84t-95.5 -30z" />
    <glyph glyph-name="Scedilla" unicode="&#x15e;" horiz-adv-x="1198" 
d="M690 -91q51 0 96 -35.5t45 -113.5q0 -62 -35.5 -102.5t-92 -60t-119.5 -19.5q-59 0 -112 14t-73 28l45 85q15 -10 56 -25t92 -15q58 0 98.5 25.5t40.5 73.5q0 39 -21.5 57.5t-54.5 18.5q-25 0 -51 -10t-39 -27l-87 26l62 152q-207 13 -326 124t-119 318v65h217v-61
q0 -136 73 -199.5t213 -63.5q144 0 218.5 48.5t74.5 156.5q0 77 -46.5 129.5t-128 90.5t-187.5 71q-120 37 -216 94.5t-152 144t-56 211.5q0 123 62 209t172 130.5t252 44.5q226 0 363.5 -105t137.5 -317v-70h-218v61q0 129 -70.5 187.5t-208.5 58.5q-134 0 -206.5 -47.5
t-72.5 -151.5q0 -78 46.5 -130t128 -89.5t185.5 -71.5q132 -44 227.5 -99t147.5 -137t52 -207q0 -181 -125.5 -284.5t-340.5 -111.5l-39 -97q39 26 92 26z" />
    <glyph glyph-name="Scircumflex" unicode="&#x15c;" horiz-adv-x="1198" 
d="M599 -21q-233 0 -368.5 111t-135.5 333v65h217v-61q0 -136 73 -199.5t213 -63.5q144 0 218.5 48.5t74.5 156.5q0 77 -46.5 129.5t-128 90.5t-187.5 71q-120 37 -216 94.5t-152 144t-56 211.5q0 123 62 209t172 130.5t252 44.5q226 0 363.5 -105t137.5 -317v-70h-218v61
q0 129 -70.5 187.5t-208.5 58.5q-134 0 -206.5 -47.5t-72.5 -151.5q0 -78 46.5 -130t128 -89.5t185.5 -71.5q132 -44 227.5 -99t147.5 -137t52 -207q0 -189 -136.5 -293t-367.5 -104zM297 1552l222 188h156l223 -188h-153l-148 128l-149 -128h-151z" />
    <glyph glyph-name="uni0218" unicode="&#x218;" horiz-adv-x="1198" 
d="M599 -21q-233 0 -368.5 111t-135.5 333v65h217v-61q0 -136 73 -199.5t213 -63.5q144 0 218.5 48.5t74.5 156.5q0 77 -46.5 129.5t-128 90.5t-187.5 71q-120 37 -216 94.5t-152 144t-56 211.5q0 123 62 209t172 130.5t252 44.5q226 0 363.5 -105t137.5 -317v-70h-218v61
q0 129 -70.5 187.5t-208.5 58.5q-134 0 -206.5 -47.5t-72.5 -151.5q0 -78 46.5 -130t128 -89.5t185.5 -71.5q132 -44 227.5 -99t147.5 -137t52 -207q0 -189 -136.5 -293t-367.5 -104zM580 -251q-38 0 -62.5 22t-24.5 58q0 42 32 63.5t72 21.5q37 0 72.5 -24t35.5 -82
q0 -69 -27 -119t-66.5 -82.5t-77.5 -50.5l-16 40q43 18 85.5 64t42.5 116q-6 -12 -25.5 -19.5t-40.5 -7.5z" />
    <glyph glyph-name="uni1E60" unicode="&#x1e60;" horiz-adv-x="1198" 
d="M599 -21q-233 0 -368.5 111t-135.5 333v65h217v-61q0 -136 73 -199.5t213 -63.5q144 0 218.5 48.5t74.5 156.5q0 77 -46.5 129.5t-128 90.5t-187.5 71q-120 37 -216 94.5t-152 144t-56 211.5q0 123 62 209t172 130.5t252 44.5q226 0 363.5 -105t137.5 -317v-70h-218v61
q0 129 -70.5 187.5t-208.5 58.5q-134 0 -206.5 -47.5t-72.5 -151.5q0 -78 46.5 -130t128 -89.5t185.5 -71.5q132 -44 227.5 -99t147.5 -137t52 -207q0 -189 -136.5 -293t-367.5 -104zM600 1568q-55 0 -96 30.5t-41 83.5q0 54 41 84t96 30t95.5 -30t40.5 -84t-40.5 -84
t-95.5 -30z" />
    <glyph glyph-name="uni1E62" unicode="&#x1e62;" horiz-adv-x="1198" 
d="M599 -21q-233 0 -368.5 111t-135.5 333v65h217v-61q0 -136 73 -199.5t213 -63.5q144 0 218.5 48.5t74.5 156.5q0 77 -46.5 129.5t-128 90.5t-187.5 71q-120 37 -216 94.5t-152 144t-56 211.5q0 123 62 209t172 130.5t252 44.5q226 0 363.5 -105t137.5 -317v-70h-218v61
q0 129 -70.5 187.5t-208.5 58.5q-134 0 -206.5 -47.5t-72.5 -151.5q0 -78 46.5 -130t128 -89.5t185.5 -71.5q132 -44 227.5 -99t147.5 -137t52 -207q0 -189 -136.5 -293t-367.5 -104zM600 -365q-55 0 -96 30t-41 83q0 54 41 84t96 30q54 0 95 -30t41 -84q0 -53 -41 -83
t-95 -30z" />
    <glyph glyph-name="uni1E68" unicode="&#x1e68;" horiz-adv-x="1198" 
d="M599 -21q-233 0 -368.5 111t-135.5 333v65h217v-61q0 -136 73 -199.5t213 -63.5q144 0 218.5 48.5t74.5 156.5q0 77 -46.5 129.5t-128 90.5t-187.5 71q-120 37 -216 94.5t-152 144t-56 211.5q0 123 62 209t172 130.5t252 44.5q226 0 363.5 -105t137.5 -317v-70h-218v61
q0 129 -70.5 187.5t-208.5 58.5q-134 0 -206.5 -47.5t-72.5 -151.5q0 -78 46.5 -130t128 -89.5t185.5 -71.5q132 -44 227.5 -99t147.5 -137t52 -207q0 -189 -136.5 -293t-367.5 -104zM600 -365q-55 0 -96 30t-41 83q0 54 41 84t96 30q54 0 95 -30t41 -84q0 -53 -41 -83
t-95 -30zM600 1568q-55 0 -96 30.5t-41 83.5q0 54 41 84t96 30t95.5 -30t40.5 -84t-40.5 -84t-95.5 -30z" />
    <glyph glyph-name="uni1E9E" unicode="&#x1e9e;" horiz-adv-x="1273" 
d="M135 0v1112q0 186 107 274.5t279 88.5h561v-190l-356 -389q30 12 79 12q99 0 184 -49t137 -150t52 -255q0 -163 -66 -266.5t-180.5 -152t-257.5 -48.5q-73 0 -125.5 11t-74.5 21l7 183q18 -8 75 -21.5t121 -13.5q118 0 200 69.5t82 225.5q0 107 -36 171.5t-96 93
t-131 28.5q-29 0 -52 -7.5t-38 -12.5l-135 147l367 413h-291q-99 0 -147 -55.5t-48 -158.5v-1081h-217z" />
    <glyph glyph-name="uni018F" unicode="&#x18f;" horiz-adv-x="1275" 
d="M625 -11q-167 0 -285.5 87t-181.5 248t-63 381v60.5t1 35.5h863q-9 260 -93 380.5t-234 120.5q-107 0 -176.5 -48t-104.5 -115.5t-37 -127.5h-209q2 84 39 167.5t105 152.5t165 111t218 42q163 0 286 -82.5t192.5 -248.5t69.5 -414q0 -225 -67 -394t-191.5 -262.5
t-296.5 -93.5zM625 171q153 0 234 120t97 332h-645q5 -204 83 -328t231 -124z" />
    <glyph glyph-name="T" unicode="T" horiz-adv-x="1122" 
d="M1048 1295h-379v-1295h-217v1295h-378v180h974v-180z" />
    <glyph glyph-name="Tbar" unicode="&#x166;" horiz-adv-x="1122" 
d="M207 687v102h245v506h-378v180h974v-180h-379v-506h245v-102h-245v-687h-217v687h-245z" />
    <glyph glyph-name="Tcaron" unicode="&#x164;" horiz-adv-x="1122" 
d="M1048 1295h-379v-1295h-217v1295h-378v180h974v-180zM260 1740h151l149 -129l148 129h153l-223 -188h-156z" />
    <glyph glyph-name="uni0162" unicode="&#x162;" horiz-adv-x="1122" 
d="M1048 1295h-379v-1295h-217v1295h-378v180h974v-180zM653 -91q51 0 96 -35.5t45 -113.5q0 -62 -35.5 -102.5t-92 -60t-119.5 -19.5q-59 0 -112 14t-73 28l45 85q15 -10 56 -25t92 -15q58 0 98.5 25.5t40.5 73.5q0 39 -21.5 57.5t-54.5 18.5q-25 0 -51 -10t-39 -27l-87 26
l70 171h98l-48 -117q39 26 92 26z" />
    <glyph glyph-name="uni021A" unicode="&#x21a;" horiz-adv-x="1122" 
d="M1048 1295h-379v-1295h-217v1295h-378v180h974v-180zM543 -251q-38 0 -62.5 22t-24.5 58q0 42 32 63.5t72 21.5q37 0 72.5 -24t35.5 -82q0 -69 -27 -119t-66.5 -82.5t-77.5 -50.5l-16 40q43 18 85.5 64t42.5 116q-6 -12 -25.5 -19.5t-40.5 -7.5z" />
    <glyph glyph-name="uni1E6C" unicode="&#x1e6c;" horiz-adv-x="1122" 
d="M1048 1295h-379v-1295h-217v1295h-378v180h974v-180zM563 -365q-55 0 -96 30t-41 83q0 54 41 84t96 30q54 0 95 -30t41 -84q0 -53 -41 -83t-95 -30z" />
    <glyph glyph-name="uni1E6E" unicode="&#x1e6e;" horiz-adv-x="1122" 
d="M1048 1295h-379v-1295h-217v1295h-378v180h974v-180zM263 -274v95h599v-95h-599z" />
    <glyph glyph-name="U" unicode="U" horiz-adv-x="1314" 
d="M1179 540q0 -285 -139 -423t-384 -138q-244 0 -382.5 138t-138.5 423v935h217v-934q0 -200 76 -288.5t228 -88.5q153 0 229.5 88.5t76.5 288.5v934h217v-935z" />
    <glyph glyph-name="Uacute" unicode="&#xda;" horiz-adv-x="1314" 
d="M1179 540q0 -285 -139 -423t-384 -138q-244 0 -382.5 138t-138.5 423v935h217v-934q0 -200 76 -288.5t228 -88.5q153 0 229.5 88.5t76.5 288.5v934h217v-935zM518 1553l279 190h194l-297 -190h-176z" />
    <glyph glyph-name="Ubreve" unicode="&#x16c;" horiz-adv-x="1314" 
d="M1179 540q0 -285 -139 -423t-384 -138q-244 0 -382.5 138t-138.5 423v935h217v-934q0 -200 76 -288.5t228 -88.5q153 0 229.5 88.5t76.5 288.5v934h217v-935zM399 1722h132q0 -40 33.5 -69.5t91.5 -29.5t91.5 29.5t33.5 69.5h132q0 -83 -73.5 -135.5t-183.5 -52.5
t-183.5 52.5t-73.5 135.5z" />
    <glyph glyph-name="uni01D3" unicode="&#x1d3;" horiz-adv-x="1314" 
d="M1179 540q0 -285 -139 -423t-384 -138q-244 0 -382.5 138t-138.5 423v935h217v-934q0 -200 76 -288.5t228 -88.5q153 0 229.5 88.5t76.5 288.5v934h217v-935zM361 1888h146l149 -175l148 175h148l-221 -253h-150z" />
    <glyph glyph-name="Ucircumflex" unicode="&#xdb;" horiz-adv-x="1314" 
d="M1179 540q0 -285 -139 -423t-384 -138q-244 0 -382.5 138t-138.5 423v935h217v-934q0 -200 76 -288.5t228 -88.5q153 0 229.5 88.5t76.5 288.5v934h217v-935zM356 1552l222 188h156l223 -188h-153l-148 128l-149 -128h-151z" />
    <glyph glyph-name="uni0214" unicode="&#x214;" horiz-adv-x="1314" 
d="M1179 540q0 -285 -139 -423t-384 -138q-244 0 -382.5 138t-138.5 423v935h217v-934q0 -200 76 -288.5t228 -88.5q153 0 229.5 88.5t76.5 288.5v934h217v-935zM886 1552h-129l-203 192h151zM571 1552h-130l-217 192h151z" />
    <glyph glyph-name="Udieresis" unicode="&#xdc;" horiz-adv-x="1314" 
d="M1179 540q0 -285 -139 -423t-384 -138q-244 0 -382.5 138t-138.5 423v935h217v-934q0 -200 76 -288.5t228 -88.5q153 0 229.5 88.5t76.5 288.5v934h217v-935zM447 1555q-51 0 -89 28.5t-38 77.5q0 50 38 78t89 28q50 0 88 -28t38 -78t-38 -78t-88 -28zM867 1555
q-51 0 -88.5 28.5t-37.5 77.5q0 50 37.5 78t88.5 28t89 -28t38 -78t-38 -78t-89 -28z" />
    <glyph glyph-name="uni01D7" unicode="&#x1d7;" horiz-adv-x="1314" 
d="M1179 540q0 -285 -139 -423t-384 -138q-244 0 -382.5 138t-138.5 423v935h217v-934q0 -200 76 -288.5t228 -88.5q153 0 229.5 88.5t76.5 288.5v934h217v-935zM447 1555q-51 0 -89 28.5t-38 77.5q0 50 38 78t89 28q50 0 88 -28t38 -78t-38 -78t-88 -28zM867 1555
q-51 0 -88.5 28.5t-37.5 77.5q0 50 37.5 78t88.5 28t89 -28t38 -78t-38 -78t-89 -28zM518 1819l279 190h194l-297 -190h-176z" />
    <glyph glyph-name="uni01D9" unicode="&#x1d9;" horiz-adv-x="1314" 
d="M1179 540q0 -285 -139 -423t-384 -138q-244 0 -382.5 138t-138.5 423v935h217v-934q0 -200 76 -288.5t228 -88.5q153 0 229.5 88.5t76.5 288.5v934h217v-935zM447 1555q-51 0 -89 28.5t-38 77.5q0 50 38 78t89 28q50 0 88 -28t38 -78t-38 -78t-88 -28zM867 1555
q-51 0 -88.5 28.5t-37.5 77.5q0 50 37.5 78t88.5 28t89 -28t38 -78t-38 -78t-89 -28zM356 2006h151l149 -129l148 129h153l-223 -188h-156z" />
    <glyph glyph-name="uni01DB" unicode="&#x1db;" horiz-adv-x="1314" 
d="M1179 540q0 -285 -139 -423t-384 -138q-244 0 -382.5 138t-138.5 423v935h217v-934q0 -200 76 -288.5t228 -88.5q153 0 229.5 88.5t76.5 288.5v934h217v-935zM447 1555q-51 0 -89 28.5t-38 77.5q0 50 38 78t89 28q50 0 88 -28t38 -78t-38 -78t-88 -28zM867 1555
q-51 0 -88.5 28.5t-37.5 77.5q0 50 37.5 78t88.5 28t89 -28t38 -78t-38 -78t-89 -28zM799 1819h-175l-298 190h194z" />
    <glyph glyph-name="uni01D5" unicode="&#x1d5;" horiz-adv-x="1314" 
d="M1179 540q0 -285 -139 -423t-384 -138q-244 0 -382.5 138t-138.5 423v935h217v-934q0 -200 76 -288.5t228 -88.5q153 0 229.5 88.5t76.5 288.5v934h217v-935zM447 1555q-51 0 -89 28.5t-38 77.5q0 50 38 78t89 28q50 0 88 -28t38 -78t-38 -78t-88 -28zM867 1555
q-51 0 -88.5 28.5t-37.5 77.5q0 50 37.5 78t88.5 28t89 -28t38 -78t-38 -78t-89 -28zM379 1876v94h553v-94h-553z" />
    <glyph glyph-name="uni1EE4" unicode="&#x1ee4;" horiz-adv-x="1314" 
d="M1179 540q0 -285 -139 -423t-384 -138q-244 0 -382.5 138t-138.5 423v935h217v-934q0 -200 76 -288.5t228 -88.5q153 0 229.5 88.5t76.5 288.5v934h217v-935zM656 -365q-55 0 -96 30t-41 83q0 54 41 84t96 30q54 0 95 -30t41 -84q0 -53 -41 -83t-95 -30z" />
    <glyph glyph-name="Ugrave" unicode="&#xd9;" horiz-adv-x="1314" 
d="M1179 540q0 -285 -139 -423t-384 -138q-244 0 -382.5 138t-138.5 423v935h217v-934q0 -200 76 -288.5t228 -88.5q153 0 229.5 88.5t76.5 288.5v934h217v-935zM799 1553h-175l-298 190h194z" />
    <glyph glyph-name="uni1EE6" unicode="&#x1ee6;" horiz-adv-x="1314" 
d="M1179 540q0 -285 -139 -423t-384 -138q-244 0 -382.5 138t-138.5 423v935h217v-934q0 -200 76 -288.5t228 -88.5q153 0 229.5 88.5t76.5 288.5v934h217v-935zM446 1777q109 0 195.5 -8.5t136.5 -35t50 -80.5q0 -71 -76 -102.5t-177 -31.5l-25 64q34 1 73 7t66 19t27 36
q0 38 -72.5 47.5t-197.5 9.5v75z" />
    <glyph glyph-name="Uhorn" unicode="&#x1af;" horiz-adv-x="1396" 
d="M1179 540q0 -285 -139 -423t-384 -138q-244 0 -382.5 138t-138.5 423v935h217v-934q0 -200 76 -288.5t228 -88.5q153 0 229.5 88.5t76.5 288.5v934h128q172 0 172 257h138q0 -156 -59 -244t-162 -113v-835z" />
    <glyph glyph-name="uni1EE8" unicode="&#x1ee8;" horiz-adv-x="1400" 
d="M1179 540q0 -285 -139 -423t-384 -138q-244 0 -382.5 138t-138.5 423v935h217v-934q0 -200 76 -288.5t228 -88.5q153 0 229.5 88.5t76.5 288.5v934h128q172 0 172 257h138q0 -156 -59 -244t-162 -113v-835zM518 1553l279 190h194l-297 -190h-176z" />
    <glyph glyph-name="uni1EF0" unicode="&#x1ef0;" horiz-adv-x="1400" 
d="M636 -382q-55 0 -96 30t-41 83q0 54 41 84t96 30q54 0 95 -30t41 -84q0 -53 -41 -83t-95 -30zM1179 540q0 -285 -139 -423t-384 -138q-244 0 -382.5 138t-138.5 423v935h217v-934q0 -200 76 -288.5t228 -88.5q153 0 229.5 88.5t76.5 288.5v934h128q172 0 172 257h138
q0 -156 -59 -244t-162 -113v-835z" />
    <glyph glyph-name="uni1EEA" unicode="&#x1eea;" horiz-adv-x="1400" 
d="M808 1553h-175l-298 190h194zM1179 540q0 -285 -139 -423t-384 -138q-244 0 -382.5 138t-138.5 423v935h217v-934q0 -200 76 -288.5t228 -88.5q153 0 229.5 88.5t76.5 288.5v934h128q172 0 172 257h138q0 -156 -59 -244t-162 -113v-835z" />
    <glyph glyph-name="uni1EEC" unicode="&#x1eec;" horiz-adv-x="1400" 
d="M1179 540q0 -285 -139 -423t-384 -138q-244 0 -382.5 138t-138.5 423v935h217v-934q0 -200 76 -288.5t228 -88.5q153 0 229.5 88.5t76.5 288.5v934h128q172 0 172 257h138q0 -156 -59 -244t-162 -113v-835zM446 1777q109 0 195.5 -8.5t136.5 -35t50 -80.5
q0 -71 -76 -102.5t-177 -31.5l-25 64q34 1 73 7t66 19t27 36q0 38 -72.5 47.5t-197.5 9.5v75z" />
    <glyph glyph-name="uni1EEE" unicode="&#x1eee;" horiz-adv-x="1400" 
d="M971 1726q-1 -37 -19 -79.5t-56 -72.5t-100 -30q-47 0 -81.5 19t-58.5 38q-22 18 -45.5 32t-54.5 14q-39 0 -54 -24.5t-17 -53.5h-119q2 39 22.5 82t61 73t101.5 30q47 0 80 -18.5t56 -37.5q23 -18 47.5 -33t51.5 -15q38 0 51.5 23t14.5 53h119zM1179 540
q0 -285 -139 -423t-384 -138q-244 0 -382.5 138t-138.5 423v935h217v-934q0 -200 76 -288.5t228 -88.5q153 0 229.5 88.5t76.5 288.5v934h128q172 0 172 257h138q0 -156 -59 -244t-162 -113v-835z" />
    <glyph glyph-name="Uhungarumlaut" unicode="&#x170;" horiz-adv-x="1314" 
d="M1179 540q0 -285 -139 -423t-384 -138q-244 0 -382.5 138t-138.5 423v935h217v-934q0 -200 76 -288.5t228 -88.5q153 0 229.5 88.5t76.5 288.5v934h217v-935zM431 1553l234 190h159l-256 -190h-137zM733 1553l234 190h158l-256 -190h-136z" />
    <glyph glyph-name="uni0216" unicode="&#x216;" horiz-adv-x="1314" 
d="M1179 540q0 -285 -139 -423t-384 -138q-244 0 -382.5 138t-138.5 423v935h217v-934q0 -200 76 -288.5t228 -88.5q153 0 229.5 88.5t76.5 288.5v934h217v-935zM399 1543q0 82 73.5 131.5t183.5 49.5t183.5 -49.5t73.5 -131.5h-131q0 38 -34 65.5t-92 27.5t-92 -27.5
t-34 -65.5h-131z" />
    <glyph glyph-name="Umacron" unicode="&#x16a;" horiz-adv-x="1314" 
d="M1179 540q0 -285 -139 -423t-384 -138q-244 0 -382.5 138t-138.5 423v935h217v-934q0 -200 76 -288.5t228 -88.5q153 0 229.5 88.5t76.5 288.5v934h217v-935zM379 1610v94h553v-94h-553z" />
    <glyph glyph-name="uni1E7A" unicode="&#x1e7a;" horiz-adv-x="1314" 
d="M1179 540q0 -285 -139 -423t-384 -138q-244 0 -382.5 138t-138.5 423v935h217v-934q0 -200 76 -288.5t228 -88.5q153 0 229.5 88.5t76.5 288.5v934h217v-935zM379 1610v94h553v-94h-553zM447 1784q-51 0 -89 28.5t-38 77.5q0 50 38 78t89 28q50 0 88 -28t38 -78t-38 -78
t-88 -28zM867 1784q-51 0 -88.5 28.5t-37.5 77.5q0 50 37.5 78t88.5 28t89 -28t38 -78t-38 -78t-89 -28z" />
    <glyph glyph-name="Uogonek" unicode="&#x172;" horiz-adv-x="1314" 
d="M893 -300v-109q-20 -3 -44.5 -5t-48.5 -2q-87 0 -151 36t-64 120q0 65 45.5 130t98.5 112q-35 -3 -73 -3q-244 0 -382.5 138t-138.5 423v935h217v-934q0 -200 76 -288.5t228 -88.5q153 0 229.5 88.5t76.5 288.5v934h217v-935q0 -209 -76 -338.5t-215 -183.5
q-34 -30 -75 -75t-70.5 -91t-29.5 -82q0 -42 28 -60t72 -18q19 0 41 2.5t39 5.5z" />
    <glyph glyph-name="Uring" unicode="&#x16e;" horiz-adv-x="1314" 
d="M1179 540q0 -285 -139 -423t-384 -138q-244 0 -382.5 138t-138.5 423v935h217v-934q0 -200 76 -288.5t228 -88.5q153 0 229.5 88.5t76.5 288.5v934h217v-935zM656 1520q-84 0 -144.5 60t-60.5 145q0 84 60.5 144.5t144.5 60.5q85 0 145 -60.5t60 -144.5q0 -85 -60 -145
t-145 -60zM656 1618q45 0 76 31t31 76q0 44 -31 75t-76 31q-44 0 -75 -31t-31 -75q0 -45 31 -76t75 -31z" />
    <glyph glyph-name="Utilde" unicode="&#x168;" horiz-adv-x="1314" 
d="M1179 540q0 -285 -139 -423t-384 -138q-244 0 -382.5 138t-138.5 423v935h217v-934q0 -200 76 -288.5t228 -88.5q153 0 229.5 88.5t76.5 288.5v934h217v-935zM964 1726q-1 -37 -19 -79.5t-56 -72.5t-100 -30q-47 0 -81.5 19t-58.5 38q-22 18 -45.5 32t-54.5 14
q-39 0 -54 -24.5t-17 -53.5h-119q2 39 22.5 82t61 73t101.5 30q47 0 80 -18.5t56 -37.5q23 -18 47.5 -33t51.5 -15q38 0 51.5 23t14.5 53h119z" />
    <glyph glyph-name="uni1E78" unicode="&#x1e78;" horiz-adv-x="1314" 
d="M1179 540q0 -285 -139 -423t-384 -138q-244 0 -382.5 138t-138.5 423v935h217v-934q0 -200 76 -288.5t228 -88.5q153 0 229.5 88.5t76.5 288.5v934h217v-935zM964 1726q-1 -37 -19 -79.5t-56 -72.5t-100 -30q-47 0 -81.5 19t-58.5 38q-22 18 -45.5 32t-54.5 14
q-39 0 -54 -24.5t-17 -53.5h-119q2 39 22.5 82t61 73t101.5 30q47 0 80 -18.5t56 -37.5q23 -18 47.5 -33t51.5 -15q38 0 51.5 23t14.5 53h119zM518 1831l279 190h194l-297 -190h-176z" />
    <glyph glyph-name="V" unicode="V" horiz-adv-x="1236" 
d="M459 -6l-389 1481h239l310 -1301l306 1301h240l-385 -1481h-321z" />
    <glyph glyph-name="W" unicode="W" horiz-adv-x="1779" 
d="M308 0l-228 1475h224l172 -1309l274 1309h279l273 -1308l172 1308h225l-230 -1475h-334l-245 1247l-247 -1247h-335z" />
    <glyph glyph-name="Wacute" unicode="&#x1e82;" horiz-adv-x="1779" 
d="M308 0l-228 1475h224l172 -1309l274 1309h279l273 -1308l172 1308h225l-230 -1475h-334l-245 1247l-247 -1247h-335zM755 1553l279 190h194l-297 -190h-176z" />
    <glyph glyph-name="Wcircumflex" unicode="&#x174;" horiz-adv-x="1779" 
d="M308 0l-228 1475h224l172 -1309l274 1309h279l273 -1308l172 1308h225l-230 -1475h-334l-245 1247l-247 -1247h-335zM593 1552l222 188h156l223 -188h-153l-148 128l-149 -128h-151z" />
    <glyph glyph-name="Wdieresis" unicode="&#x1e84;" horiz-adv-x="1779" 
d="M308 0l-228 1475h224l172 -1309l274 1309h279l273 -1308l172 1308h225l-230 -1475h-334l-245 1247l-247 -1247h-335zM684 1555q-51 0 -89 28.5t-38 77.5q0 50 38 78t89 28q50 0 88 -28t38 -78t-38 -78t-88 -28zM1104 1555q-51 0 -88.5 28.5t-37.5 77.5q0 50 37.5 78
t88.5 28t89 -28t38 -78t-38 -78t-89 -28z" />
    <glyph glyph-name="Wgrave" unicode="&#x1e80;" horiz-adv-x="1779" 
d="M308 0l-228 1475h224l172 -1309l274 1309h279l273 -1308l172 1308h225l-230 -1475h-334l-245 1247l-247 -1247h-335zM1036 1553h-175l-298 190h194z" />
    <glyph glyph-name="X" unicode="X" horiz-adv-x="1233" 
d="M936 0l-320 562l-320 -562h-243l434 730l-422 745h243l308 -576l306 576h243l-418 -744l433 -731h-244z" />
    <glyph glyph-name="Y" unicode="Y" horiz-adv-x="1192" 
d="M1121 1475l-418 -964v-511h-217v511l-416 964h230l295 -730l295 730h231z" />
    <glyph glyph-name="Yacute" unicode="&#xdd;" horiz-adv-x="1192" 
d="M1121 1475l-418 -964v-511h-217v511l-416 964h230l295 -730l295 730h231zM458 1553l279 190h194l-297 -190h-176z" />
    <glyph glyph-name="Ycircumflex" unicode="&#x176;" horiz-adv-x="1192" 
d="M1121 1475l-418 -964v-511h-217v511l-416 964h230l295 -730l295 730h231zM295 1552l222 188h156l223 -188h-153l-148 128l-149 -128h-151z" />
    <glyph glyph-name="Ydieresis" unicode="&#x178;" horiz-adv-x="1192" 
d="M1121 1475l-418 -964v-511h-217v511l-416 964h230l295 -730l295 730h231zM387 1555q-51 0 -89 28.5t-38 77.5q0 50 38 78t89 28q50 0 88 -28t38 -78t-38 -78t-88 -28zM807 1555q-51 0 -88.5 28.5t-37.5 77.5q0 50 37.5 78t88.5 28t89 -28t38 -78t-38 -78t-89 -28z" />
    <glyph glyph-name="uni1EF4" unicode="&#x1ef4;" horiz-adv-x="1192" 
d="M1121 1475l-418 -964v-511h-217v511l-416 964h230l295 -730l295 730h231zM596 -365q-55 0 -96 30t-41 83q0 54 41 84t96 30q54 0 95 -30t41 -84q0 -53 -41 -83t-95 -30z" />
    <glyph glyph-name="Ygrave" unicode="&#x1ef2;" horiz-adv-x="1192" 
d="M1121 1475l-418 -964v-511h-217v511l-416 964h230l295 -730l295 730h231zM738 1553h-175l-298 190h194z" />
    <glyph glyph-name="uni1EF6" unicode="&#x1ef6;" horiz-adv-x="1192" 
d="M1121 1475l-418 -964v-511h-217v511l-416 964h230l295 -730l295 730h231zM385 1777q109 0 195.5 -8.5t136.5 -35t50 -80.5q0 -71 -76 -102.5t-177 -31.5l-25 64q34 1 73 7t66 19t27 36q0 38 -72.5 47.5t-197.5 9.5v75z" />
    <glyph glyph-name="uni0232" unicode="&#x232;" horiz-adv-x="1192" 
d="M1121 1475l-418 -964v-511h-217v511l-416 964h230l295 -730l295 730h231zM319 1610v94h553v-94h-553z" />
    <glyph glyph-name="uni1EF8" unicode="&#x1ef8;" horiz-adv-x="1192" 
d="M1121 1475l-418 -964v-511h-217v511l-416 964h230l295 -730l295 730h231zM904 1726q-1 -37 -19 -79.5t-56 -72.5t-100 -30q-47 0 -81.5 19t-58.5 38q-22 18 -45.5 32t-54.5 14q-39 0 -54 -24.5t-17 -53.5h-119q2 39 22.5 82t61 73t101.5 30q47 0 80 -18.5t56 -37.5
q23 -18 47.5 -33t51.5 -15q38 0 51.5 23t14.5 53h119z" />
    <glyph glyph-name="Z" unicode="Z" horiz-adv-x="1125" 
d="M342 180h674v-180h-917v159l685 1136h-640v180h882v-156l-684 -1136v-3z" />
    <glyph glyph-name="Zacute" unicode="&#x179;" horiz-adv-x="1125" 
d="M342 180h674v-180h-917v159l685 1136h-640v180h882v-156l-684 -1136v-3zM426 1553l279 190h194l-297 -190h-176z" />
    <glyph glyph-name="Zcaron" unicode="&#x17d;" horiz-adv-x="1125" 
d="M342 180h674v-180h-917v159l685 1136h-640v180h882v-156l-684 -1136v-3zM264 1740h151l149 -129l148 129h153l-223 -188h-156z" />
    <glyph glyph-name="Zdotaccent" unicode="&#x17b;" horiz-adv-x="1125" 
d="M342 180h674v-180h-917v159l685 1136h-640v180h882v-156l-684 -1136v-3zM567 1568q-55 0 -96 30.5t-41 83.5q0 54 41 84t96 30t95.5 -30t40.5 -84t-40.5 -84t-95.5 -30z" />
    <glyph glyph-name="uni1E92" unicode="&#x1e92;" horiz-adv-x="1125" 
d="M342 180h674v-180h-917v159l685 1136h-640v180h882v-156l-684 -1136v-3zM564 -359q-55 0 -96 30t-41 83q0 54 41 84t96 30q54 0 95 -30t41 -84q0 -53 -41 -83t-95 -30z" />
    <glyph glyph-name="a" unicode="a" horiz-adv-x="1231" 
d="M510 -21q-180 0 -290.5 84t-110.5 234q0 107 56.5 177t156 108.5t226.5 50.5q188 19 266 37t78 59v2q0 81 -69 123t-197 42q-135 0 -208.5 -47.5t-73.5 -150.5h-213q0 122 63.5 207t175.5 129.5t257 44.5q133 0 242.5 -40.5t174.5 -120.5t65 -199v-507q0 -37 2.5 -71.5
t11.5 -61.5q9 -31 21.5 -51.5t20.5 -27.5h-216q-6 6 -17.5 25.5t-20.5 45.5q-8 22 -12 50q-57 -65 -157.5 -103.5t-231.5 -38.5zM555 159q93 0 170 29.5t122.5 90t45.5 152.5v92q-62 -18 -139 -29.5t-157 -19.5q-135 -13 -203 -47t-68 -114q0 -154 229 -154z" />
    <glyph glyph-name="a.ss01" horiz-adv-x="1306" 
d="M616 -21q-132 0 -250 60t-192.5 183.5t-74.5 314.5q0 137 43.5 239t117.5 169t166.5 100.5t189.5 33.5q100 0 188.5 -36.5t152.5 -107.5v127h217v-1062h-217v121q-64 -71 -152.5 -106.5t-188.5 -35.5zM657 169q79 0 147 35t110.5 103.5t42.5 166.5v116q0 98 -42.5 165
t-111 100.5t-146.5 33.5q-86 0 -161.5 -34.5t-122 -112t-46.5 -206.5q0 -130 46.5 -211t122 -118.5t161.5 -37.5z" />
    <glyph glyph-name="aacute" unicode="&#xe1;" horiz-adv-x="1231" 
d="M510 -21q-180 0 -290.5 84t-110.5 234q0 107 56.5 177t156 108.5t226.5 50.5q188 19 266 37t78 59v2q0 81 -69 123t-197 42q-135 0 -208.5 -47.5t-73.5 -150.5h-213q0 122 63.5 207t175.5 129.5t257 44.5q133 0 242.5 -40.5t174.5 -120.5t65 -199v-507q0 -37 2.5 -71.5
t11.5 -61.5q9 -31 21.5 -51.5t20.5 -27.5h-216q-6 6 -17.5 25.5t-20.5 45.5q-8 22 -12 50q-57 -65 -157.5 -103.5t-231.5 -38.5zM555 159q93 0 170 29.5t122.5 90t45.5 152.5v92q-62 -18 -139 -29.5t-157 -19.5q-135 -13 -203 -47t-68 -114q0 -154 229 -154zM505 1222
l239 253h184l-263 -253h-160z" />
    <glyph glyph-name="aacute.ss01" horiz-adv-x="1306" 
d="M616 -21q-132 0 -250 60t-192.5 183.5t-74.5 314.5q0 137 43.5 239t117.5 169t166.5 100.5t189.5 33.5q100 0 188.5 -36.5t152.5 -107.5v127h217v-1062h-217v121q-64 -71 -152.5 -106.5t-188.5 -35.5zM657 169q79 0 147 35t110.5 103.5t42.5 166.5v116q0 98 -42.5 165
t-111 100.5t-146.5 33.5q-86 0 -161.5 -34.5t-122 -112t-46.5 -206.5q0 -130 46.5 -211t122 -118.5t161.5 -37.5zM521 1222l239 253h184l-263 -253h-160z" />
    <glyph glyph-name="abreve" unicode="&#x103;" horiz-adv-x="1231" 
d="M510 -21q-180 0 -290.5 84t-110.5 234q0 107 56.5 177t156 108.5t226.5 50.5q188 19 266 37t78 59v2q0 81 -69 123t-197 42q-135 0 -208.5 -47.5t-73.5 -150.5h-213q0 122 63.5 207t175.5 129.5t257 44.5q133 0 242.5 -40.5t174.5 -120.5t65 -199v-507q0 -37 2.5 -71.5
t11.5 -61.5q9 -31 21.5 -51.5t20.5 -27.5h-216q-6 6 -17.5 25.5t-20.5 45.5q-8 22 -12 50q-57 -65 -157.5 -103.5t-231.5 -38.5zM555 159q93 0 170 29.5t122.5 90t45.5 152.5v92q-62 -18 -139 -29.5t-157 -19.5q-135 -13 -203 -47t-68 -114q0 -154 229 -154zM382 1495h131
q0 -62 34 -102.5t92 -40.5t92 40.5t34 102.5h131q0 -109 -73.5 -170.5t-183.5 -61.5t-183.5 61.5t-73.5 170.5z" />
    <glyph glyph-name="abreve.ss01" horiz-adv-x="1306" 
d="M616 -21q-132 0 -250 60t-192.5 183.5t-74.5 314.5q0 137 43.5 239t117.5 169t166.5 100.5t189.5 33.5q100 0 188.5 -36.5t152.5 -107.5v127h217v-1062h-217v121q-64 -71 -152.5 -106.5t-188.5 -35.5zM657 169q79 0 147 35t110.5 103.5t42.5 166.5v116q0 98 -42.5 165
t-111 100.5t-146.5 33.5q-86 0 -161.5 -34.5t-122 -112t-46.5 -206.5q0 -130 46.5 -211t122 -118.5t161.5 -37.5zM398 1495h131q0 -62 34 -102.5t92 -40.5t92 40.5t34 102.5h131q0 -109 -73.5 -170.5t-183.5 -61.5t-183.5 61.5t-73.5 170.5z" />
    <glyph glyph-name="uni1EAF" unicode="&#x1eaf;" horiz-adv-x="1231" 
d="M510 -21q-180 0 -290.5 84t-110.5 234q0 107 56.5 177t156 108.5t226.5 50.5q188 19 266 37t78 59v2q0 81 -69 123t-197 42q-135 0 -208.5 -47.5t-73.5 -150.5h-213q0 122 63.5 207t175.5 129.5t257 44.5q133 0 242.5 -40.5t174.5 -120.5t65 -199v-507q0 -37 2.5 -71.5
t11.5 -61.5q9 -31 21.5 -51.5t20.5 -27.5h-216q-6 6 -17.5 25.5t-20.5 45.5q-8 22 -12 50q-57 -65 -157.5 -103.5t-231.5 -38.5zM555 159q93 0 170 29.5t122.5 90t45.5 152.5v92q-62 -18 -139 -29.5t-157 -19.5q-135 -13 -203 -47t-68 -114q0 -154 229 -154zM540 1522
l279 190h194l-297 -190h-176zM381 1495h131q0 -62 34 -102.5t92 -40.5t92 40.5t34 102.5h131q0 -109 -73.5 -170.5t-183.5 -61.5t-183.5 61.5t-73.5 170.5z" />
    <glyph glyph-name="uni1EAF.ss01" horiz-adv-x="1306" 
d="M616 -21q-132 0 -250 60t-192.5 183.5t-74.5 314.5q0 137 43.5 239t117.5 169t166.5 100.5t189.5 33.5q100 0 188.5 -36.5t152.5 -107.5v127h217v-1062h-217v121q-64 -71 -152.5 -106.5t-188.5 -35.5zM657 169q79 0 147 35t110.5 103.5t42.5 166.5v116q0 98 -42.5 165
t-111 100.5t-146.5 33.5q-86 0 -161.5 -34.5t-122 -112t-46.5 -206.5q0 -130 46.5 -211t122 -118.5t161.5 -37.5zM557 1522l279 190h194l-297 -190h-176zM398 1495h131q0 -62 34 -102.5t92 -40.5t92 40.5t34 102.5h131q0 -109 -73.5 -170.5t-183.5 -61.5t-183.5 61.5
t-73.5 170.5z" />
    <glyph glyph-name="uni1EB7" unicode="&#x1eb7;" horiz-adv-x="1231" 
d="M510 -21q-180 0 -290.5 84t-110.5 234q0 107 56.5 177t156 108.5t226.5 50.5q188 19 266 37t78 59v2q0 81 -69 123t-197 42q-135 0 -208.5 -47.5t-73.5 -150.5h-213q0 122 63.5 207t175.5 129.5t257 44.5q133 0 242.5 -40.5t174.5 -120.5t65 -199v-507q0 -37 2.5 -71.5
t11.5 -61.5q9 -31 21.5 -51.5t20.5 -27.5h-216q-6 6 -17.5 25.5t-20.5 45.5q-8 22 -12 50q-57 -65 -157.5 -103.5t-231.5 -38.5zM555 159q93 0 170 29.5t122.5 90t45.5 152.5v92q-62 -18 -139 -29.5t-157 -19.5q-135 -13 -203 -47t-68 -114q0 -154 229 -154zM610 -364
q-55 0 -96 30.5t-41 83.5t41 83t96 30q54 0 95 -30t41 -83q0 -54 -41 -84t-95 -30zM382 1495h131q0 -62 34 -102.5t92 -40.5t92 40.5t34 102.5h131q0 -109 -73.5 -170.5t-183.5 -61.5t-183.5 61.5t-73.5 170.5z" />
    <glyph glyph-name="uni1EB7.ss01" horiz-adv-x="1306" 
d="M616 -21q-132 0 -250 60t-192.5 183.5t-74.5 314.5q0 137 43.5 239t117.5 169t166.5 100.5t189.5 33.5q100 0 188.5 -36.5t152.5 -107.5v127h217v-1062h-217v121q-64 -71 -152.5 -106.5t-188.5 -35.5zM657 169q79 0 147 35t110.5 103.5t42.5 166.5v116q0 98 -42.5 165
t-111 100.5t-146.5 33.5q-86 0 -161.5 -34.5t-122 -112t-46.5 -206.5q0 -130 46.5 -211t122 -118.5t161.5 -37.5zM661 -364q-55 0 -96 30.5t-41 83.5t41 83t96 30q54 0 95 -30t41 -83q0 -54 -41 -84t-95 -30zM398 1495h131q0 -62 34 -102.5t92 -40.5t92 40.5t34 102.5h131
q0 -109 -73.5 -170.5t-183.5 -61.5t-183.5 61.5t-73.5 170.5z" />
    <glyph glyph-name="uni1EB1" unicode="&#x1eb1;" horiz-adv-x="1231" 
d="M510 -21q-180 0 -290.5 84t-110.5 234q0 107 56.5 177t156 108.5t226.5 50.5q188 19 266 37t78 59v2q0 81 -69 123t-197 42q-135 0 -208.5 -47.5t-73.5 -150.5h-213q0 122 63.5 207t175.5 129.5t257 44.5q133 0 242.5 -40.5t174.5 -120.5t65 -199v-507q0 -37 2.5 -71.5
t11.5 -61.5q9 -31 21.5 -51.5t20.5 -27.5h-216q-6 6 -17.5 25.5t-20.5 45.5q-8 22 -12 50q-57 -65 -157.5 -103.5t-231.5 -38.5zM555 159q93 0 170 29.5t122.5 90t45.5 152.5v92q-62 -18 -139 -29.5t-157 -19.5q-135 -13 -203 -47t-68 -114q0 -154 229 -154zM750 1522h-175
l-298 190h194zM381 1495h131q0 -62 34 -102.5t91 -40.5q59 0 92.5 40.5t33.5 102.5h132q0 -109 -74 -170.5t-184 -61.5q-109 0 -182.5 61.5t-73.5 170.5z" />
    <glyph glyph-name="uni1EB1.ss01" horiz-adv-x="1306" 
d="M616 -21q-132 0 -250 60t-192.5 183.5t-74.5 314.5q0 137 43.5 239t117.5 169t166.5 100.5t189.5 33.5q100 0 188.5 -36.5t152.5 -107.5v127h217v-1062h-217v121q-64 -71 -152.5 -106.5t-188.5 -35.5zM657 169q79 0 147 35t110.5 103.5t42.5 166.5v116q0 98 -42.5 165
t-111 100.5t-146.5 33.5q-86 0 -161.5 -34.5t-122 -112t-46.5 -206.5q0 -130 46.5 -211t122 -118.5t161.5 -37.5zM766 1522h-175l-298 190h194zM397 1495h131q0 -62 34 -102.5t91 -40.5q59 0 92.5 40.5t33.5 102.5h132q0 -109 -74 -170.5t-184 -61.5q-109 0 -182.5 61.5
t-73.5 170.5z" />
    <glyph glyph-name="uni1EB3" unicode="&#x1eb3;" horiz-adv-x="1231" 
d="M510 -21q-180 0 -290.5 84t-110.5 234q0 107 56.5 177t156 108.5t226.5 50.5q188 19 266 37t78 59v2q0 81 -69 123t-197 42q-135 0 -208.5 -47.5t-73.5 -150.5h-213q0 122 63.5 207t175.5 129.5t257 44.5q133 0 242.5 -40.5t174.5 -120.5t65 -199v-507q0 -37 2.5 -71.5
t11.5 -61.5q9 -31 21.5 -51.5t20.5 -27.5h-216q-6 6 -17.5 25.5t-20.5 45.5q-8 22 -12 50q-57 -65 -157.5 -103.5t-231.5 -38.5zM555 159q93 0 170 29.5t122.5 90t45.5 152.5v92q-62 -18 -139 -29.5t-157 -19.5q-135 -13 -203 -47t-68 -114q0 -154 229 -154zM487 1811
q109 0 195 -8.5t136 -35t50 -80.5q0 -71 -75.5 -102.5t-176.5 -31.5l-25 64q34 1 72.5 7t66 19t27.5 36q0 38 -72.5 47.5t-197.5 9.5v75zM382 1495h131q0 -62 34 -102.5t92 -40.5t92 40.5t34 102.5h131q0 -109 -73.5 -170.5t-183.5 -61.5t-183.5 61.5t-73.5 170.5z" />
    <glyph glyph-name="uni1EB3.ss01" horiz-adv-x="1306" 
d="M616 -21q-132 0 -250 60t-192.5 183.5t-74.5 314.5q0 137 43.5 239t117.5 169t166.5 100.5t189.5 33.5q100 0 188.5 -36.5t152.5 -107.5v127h217v-1062h-217v121q-64 -71 -152.5 -106.5t-188.5 -35.5zM657 169q79 0 147 35t110.5 103.5t42.5 166.5v116q0 98 -42.5 165
t-111 100.5t-146.5 33.5q-86 0 -161.5 -34.5t-122 -112t-46.5 -206.5q0 -130 46.5 -211t122 -118.5t161.5 -37.5zM503 1811q109 0 195 -8.5t136 -35t50 -80.5q0 -71 -75.5 -102.5t-176.5 -31.5l-25 64q34 1 72.5 7t66 19t27.5 36q0 38 -72.5 47.5t-197.5 9.5v75zM398 1495
h131q0 -62 34 -102.5t92 -40.5t92 40.5t34 102.5h131q0 -109 -73.5 -170.5t-183.5 -61.5t-183.5 61.5t-73.5 170.5z" />
    <glyph glyph-name="uni1EB5" unicode="&#x1eb5;" horiz-adv-x="1231" 
d="M510 -21q-180 0 -290.5 84t-110.5 234q0 107 56.5 177t156 108.5t226.5 50.5q188 19 266 37t78 59v2q0 81 -69 123t-197 42q-135 0 -208.5 -47.5t-73.5 -150.5h-213q0 122 63.5 207t175.5 129.5t257 44.5q133 0 242.5 -40.5t174.5 -120.5t65 -199v-507q0 -37 2.5 -71.5
t11.5 -61.5q9 -31 21.5 -51.5t20.5 -27.5h-216q-6 6 -17.5 25.5t-20.5 45.5q-8 22 -12 50q-57 -65 -157.5 -103.5t-231.5 -38.5zM555 159q93 0 170 29.5t122.5 90t45.5 152.5v92q-62 -18 -139 -29.5t-157 -19.5q-135 -13 -203 -47t-68 -114q0 -154 229 -154zM947 1746
q-1 -37 -19 -79.5t-56 -72.5t-99 -30q-52 0 -84 18.5t-56 38.5q-21 18 -43 32t-53 14q-39 0 -56.5 -24t-18.5 -54h-120q2 39 22.5 82t61 73t101.5 30q47 0 80 -18.5t56 -37.5q23 -18 47.5 -32.5t51.5 -14.5q38 0 51.5 22.5t15.5 52.5h118zM383 1495h131q0 -62 34 -102.5
t91 -40.5q59 0 92.5 40.5t33.5 102.5h132q0 -109 -74 -170.5t-184 -61.5q-109 0 -182.5 61.5t-73.5 170.5z" />
    <glyph glyph-name="uni1EB5.ss01" horiz-adv-x="1306" 
d="M616 -21q-132 0 -250 60t-192.5 183.5t-74.5 314.5q0 137 43.5 239t117.5 169t166.5 100.5t189.5 33.5q100 0 188.5 -36.5t152.5 -107.5v127h217v-1062h-217v121q-64 -71 -152.5 -106.5t-188.5 -35.5zM657 169q79 0 147 35t110.5 103.5t42.5 166.5v116q0 98 -42.5 165
t-111 100.5t-146.5 33.5q-86 0 -161.5 -34.5t-122 -112t-46.5 -206.5q0 -130 46.5 -211t122 -118.5t161.5 -37.5zM963 1746q-1 -37 -19 -79.5t-56 -72.5t-99 -30q-52 0 -84 18.5t-56 38.5q-21 18 -43 32t-53 14q-39 0 -56.5 -24t-18.5 -54h-120q2 39 22.5 82t61 73t101.5 30
q47 0 80 -18.5t56 -37.5q23 -18 47.5 -32.5t51.5 -14.5q38 0 51.5 22.5t15.5 52.5h118zM399 1495h131q0 -62 34 -102.5t91 -40.5q59 0 92.5 40.5t33.5 102.5h132q0 -109 -74 -170.5t-184 -61.5q-109 0 -182.5 61.5t-73.5 170.5z" />
    <glyph glyph-name="uni01CE" unicode="&#x1ce;" horiz-adv-x="1231" 
d="M510 -21q-180 0 -290.5 84t-110.5 234q0 107 56.5 177t156 108.5t226.5 50.5q188 19 266 37t78 59v2q0 81 -69 123t-197 42q-135 0 -208.5 -47.5t-73.5 -150.5h-213q0 122 63.5 207t175.5 129.5t257 44.5q133 0 242.5 -40.5t174.5 -120.5t65 -199v-507q0 -37 2.5 -71.5
t11.5 -61.5q9 -31 21.5 -51.5t20.5 -27.5h-216q-6 6 -17.5 25.5t-20.5 45.5q-8 22 -12 50q-57 -65 -157.5 -103.5t-231.5 -38.5zM555 159q93 0 170 29.5t122.5 90t45.5 152.5v92q-62 -18 -139 -29.5t-157 -19.5q-135 -13 -203 -47t-68 -114q0 -154 229 -154zM343 1475h146
l149 -175l148 175h148l-221 -253h-150z" />
    <glyph glyph-name="uni01CE.ss01" horiz-adv-x="1306" 
d="M616 -21q-132 0 -250 60t-192.5 183.5t-74.5 314.5q0 137 43.5 239t117.5 169t166.5 100.5t189.5 33.5q100 0 188.5 -36.5t152.5 -107.5v127h217v-1062h-217v121q-64 -71 -152.5 -106.5t-188.5 -35.5zM657 169q79 0 147 35t110.5 103.5t42.5 166.5v116q0 98 -42.5 165
t-111 100.5t-146.5 33.5q-86 0 -161.5 -34.5t-122 -112t-46.5 -206.5q0 -130 46.5 -211t122 -118.5t161.5 -37.5zM360 1475h146l149 -175l148 175h148l-221 -253h-150z" />
    <glyph glyph-name="acircumflex" unicode="&#xe2;" horiz-adv-x="1231" 
d="M510 -21q-180 0 -290.5 84t-110.5 234q0 107 56.5 177t156 108.5t226.5 50.5q188 19 266 37t78 59v2q0 81 -69 123t-197 42q-135 0 -208.5 -47.5t-73.5 -150.5h-213q0 122 63.5 207t175.5 129.5t257 44.5q133 0 242.5 -40.5t174.5 -120.5t65 -199v-507q0 -37 2.5 -71.5
t11.5 -61.5q9 -31 21.5 -51.5t20.5 -27.5h-216q-6 6 -17.5 25.5t-20.5 45.5q-8 22 -12 50q-57 -65 -157.5 -103.5t-231.5 -38.5zM555 159q93 0 170 29.5t122.5 90t45.5 152.5v92q-62 -18 -139 -29.5t-157 -19.5q-135 -13 -203 -47t-68 -114q0 -154 229 -154zM343 1222
l220 253h150l221 -253h-148l-148 175l-149 -175h-146z" />
    <glyph glyph-name="acircumflex.ss01" horiz-adv-x="1306" 
d="M616 -21q-132 0 -250 60t-192.5 183.5t-74.5 314.5q0 137 43.5 239t117.5 169t166.5 100.5t189.5 33.5q100 0 188.5 -36.5t152.5 -107.5v127h217v-1062h-217v121q-64 -71 -152.5 -106.5t-188.5 -35.5zM657 169q79 0 147 35t110.5 103.5t42.5 166.5v116q0 98 -42.5 165
t-111 100.5t-146.5 33.5q-86 0 -161.5 -34.5t-122 -112t-46.5 -206.5q0 -130 46.5 -211t122 -118.5t161.5 -37.5zM360 1222l220 253h150l221 -253h-148l-148 175l-149 -175h-146z" />
    <glyph glyph-name="uni1EA5" unicode="&#x1ea5;" horiz-adv-x="1231" 
d="M510 -21q-180 0 -290.5 84t-110.5 234q0 107 56.5 177t156 108.5t226.5 50.5q188 19 266 37t78 59v2q0 81 -69 123t-197 42q-135 0 -208.5 -47.5t-73.5 -150.5h-213q0 122 63.5 207t175.5 129.5t257 44.5q133 0 242.5 -40.5t174.5 -120.5t65 -199v-507q0 -37 2.5 -71.5
t11.5 -61.5q9 -31 21.5 -51.5t20.5 -27.5h-216q-6 6 -17.5 25.5t-20.5 45.5q-8 22 -12 50q-57 -65 -157.5 -103.5t-231.5 -38.5zM555 159q93 0 170 29.5t122.5 90t45.5 152.5v92q-62 -18 -139 -29.5t-157 -19.5q-135 -13 -203 -47t-68 -114q0 -154 229 -154zM782 1434
l190 253h155l-211 -253h-134zM343 1222l220 253h150l221 -253h-148l-148 175l-149 -175h-146z" />
    <glyph glyph-name="uni1EA5.ss01" horiz-adv-x="1306" 
d="M616 -21q-132 0 -250 60t-192.5 183.5t-74.5 314.5q0 137 43.5 239t117.5 169t166.5 100.5t189.5 33.5q100 0 188.5 -36.5t152.5 -107.5v127h217v-1062h-217v121q-64 -71 -152.5 -106.5t-188.5 -35.5zM657 169q79 0 147 35t110.5 103.5t42.5 166.5v116q0 98 -42.5 165
t-111 100.5t-146.5 33.5q-86 0 -161.5 -34.5t-122 -112t-46.5 -206.5q0 -130 46.5 -211t122 -118.5t161.5 -37.5zM799 1434l190 253h155l-211 -253h-134zM360 1222l220 253h150l221 -253h-148l-148 175l-149 -175h-146z" />
    <glyph glyph-name="uni1EAD" unicode="&#x1ead;" horiz-adv-x="1231" 
d="M510 -21q-180 0 -290.5 84t-110.5 234q0 107 56.5 177t156 108.5t226.5 50.5q188 19 266 37t78 59v2q0 81 -69 123t-197 42q-135 0 -208.5 -47.5t-73.5 -150.5h-213q0 122 63.5 207t175.5 129.5t257 44.5q133 0 242.5 -40.5t174.5 -120.5t65 -199v-507q0 -37 2.5 -71.5
t11.5 -61.5q9 -31 21.5 -51.5t20.5 -27.5h-216q-6 6 -17.5 25.5t-20.5 45.5q-8 22 -12 50q-57 -65 -157.5 -103.5t-231.5 -38.5zM555 159q93 0 170 29.5t122.5 90t45.5 152.5v92q-62 -18 -139 -29.5t-157 -19.5q-135 -13 -203 -47t-68 -114q0 -154 229 -154zM610 -364
q-55 0 -96 30.5t-41 83.5t41 83t96 30q54 0 95 -30t41 -83q0 -54 -41 -84t-95 -30zM343 1222l220 253h150l221 -253h-148l-148 175l-149 -175h-146z" />
    <glyph glyph-name="uni1EAD.ss01" horiz-adv-x="1306" 
d="M616 -21q-132 0 -250 60t-192.5 183.5t-74.5 314.5q0 137 43.5 239t117.5 169t166.5 100.5t189.5 33.5q100 0 188.5 -36.5t152.5 -107.5v127h217v-1062h-217v121q-64 -71 -152.5 -106.5t-188.5 -35.5zM657 169q79 0 147 35t110.5 103.5t42.5 166.5v116q0 98 -42.5 165
t-111 100.5t-146.5 33.5q-86 0 -161.5 -34.5t-122 -112t-46.5 -206.5q0 -130 46.5 -211t122 -118.5t161.5 -37.5zM661 -364q-55 0 -96 30.5t-41 83.5t41 83t96 30q54 0 95 -30t41 -83q0 -54 -41 -84t-95 -30zM360 1222l220 253h150l221 -253h-148l-148 175l-149 -175h-146z
" />
    <glyph glyph-name="uni1EA7" unicode="&#x1ea7;" horiz-adv-x="1231" 
d="M510 -21q-180 0 -290.5 84t-110.5 234q0 107 56.5 177t156 108.5t226.5 50.5q188 19 266 37t78 59v2q0 81 -69 123t-197 42q-135 0 -208.5 -47.5t-73.5 -150.5h-213q0 122 63.5 207t175.5 129.5t257 44.5q133 0 242.5 -40.5t174.5 -120.5t65 -199v-507q0 -37 2.5 -71.5
t11.5 -61.5q9 -31 21.5 -51.5t20.5 -27.5h-216q-6 6 -17.5 25.5t-20.5 45.5q-8 22 -12 50q-57 -65 -157.5 -103.5t-231.5 -38.5zM555 159q93 0 170 29.5t122.5 90t45.5 152.5v92q-62 -18 -139 -29.5t-157 -19.5q-135 -13 -203 -47t-68 -114q0 -154 229 -154zM998 1434h-134
l-211 253h155zM345 1222l220 253h150l221 -253h-148l-148 175l-149 -175h-146z" />
    <glyph glyph-name="uni1EA7.ss01" horiz-adv-x="1306" 
d="M616 -21q-132 0 -250 60t-192.5 183.5t-74.5 314.5q0 137 43.5 239t117.5 169t166.5 100.5t189.5 33.5q100 0 188.5 -36.5t152.5 -107.5v127h217v-1062h-217v121q-64 -71 -152.5 -106.5t-188.5 -35.5zM657 169q79 0 147 35t110.5 103.5t42.5 166.5v116q0 98 -42.5 165
t-111 100.5t-146.5 33.5q-86 0 -161.5 -34.5t-122 -112t-46.5 -206.5q0 -130 46.5 -211t122 -118.5t161.5 -37.5zM1014 1434h-134l-211 253h155zM361 1222l220 253h150l221 -253h-148l-148 175l-149 -175h-146z" />
    <glyph glyph-name="uni1EA9" unicode="&#x1ea9;" horiz-adv-x="1231" 
d="M510 -21q-180 0 -290.5 84t-110.5 234q0 107 56.5 177t156 108.5t226.5 50.5q188 19 266 37t78 59v2q0 81 -69 123t-197 42q-135 0 -208.5 -47.5t-73.5 -150.5h-213q0 122 63.5 207t175.5 129.5t257 44.5q133 0 242.5 -40.5t174.5 -120.5t65 -199v-507q0 -37 2.5 -71.5
t11.5 -61.5q9 -31 21.5 -51.5t20.5 -27.5h-216q-6 6 -17.5 25.5t-20.5 45.5q-8 22 -12 50q-57 -65 -157.5 -103.5t-231.5 -38.5zM555 159q93 0 170 29.5t122.5 90t45.5 152.5v92q-62 -18 -139 -29.5t-157 -19.5q-135 -13 -203 -47t-68 -114q0 -154 229 -154zM850 1435
l-24 58q33 2 69 7t61.5 17t25.5 34q0 35 -68 44t-184 9v69q102 0 181.5 -7.5t126 -32t46.5 -74.5q0 -66 -70 -95t-164 -29zM343 1222l220 253h150l221 -253h-148l-148 175l-149 -175h-146z" />
    <glyph glyph-name="uni1EA9.ss01" horiz-adv-x="1306" 
d="M616 -21q-132 0 -250 60t-192.5 183.5t-74.5 314.5q0 137 43.5 239t117.5 169t166.5 100.5t189.5 33.5q100 0 188.5 -36.5t152.5 -107.5v127h217v-1062h-217v121q-64 -71 -152.5 -106.5t-188.5 -35.5zM657 169q79 0 147 35t110.5 103.5t42.5 166.5v116q0 98 -42.5 165
t-111 100.5t-146.5 33.5q-86 0 -161.5 -34.5t-122 -112t-46.5 -206.5q0 -130 46.5 -211t122 -118.5t161.5 -37.5zM867 1435l-24 58q33 2 69 7t61.5 17t25.5 34q0 35 -68 44t-184 9v69q102 0 181.5 -7.5t126 -32t46.5 -74.5q0 -66 -70 -95t-164 -29zM360 1222l220 253h150
l221 -253h-148l-148 175l-149 -175h-146z" />
    <glyph glyph-name="uni1EAB" unicode="&#x1eab;" horiz-adv-x="1231" 
d="M510 -21q-180 0 -290.5 84t-110.5 234q0 107 56.5 177t156 108.5t226.5 50.5q188 19 266 37t78 59v2q0 81 -69 123t-197 42q-135 0 -208.5 -47.5t-73.5 -150.5h-213q0 122 63.5 207t175.5 129.5t257 44.5q133 0 242.5 -40.5t174.5 -120.5t65 -199v-507q0 -37 2.5 -71.5
t11.5 -61.5q9 -31 21.5 -51.5t20.5 -27.5h-216q-6 6 -17.5 25.5t-20.5 45.5q-8 22 -12 50q-57 -65 -157.5 -103.5t-231.5 -38.5zM555 159q93 0 170 29.5t122.5 90t45.5 152.5v92q-62 -18 -139 -29.5t-157 -19.5q-135 -13 -203 -47t-68 -114q0 -154 229 -154zM767 1539
q-51 0 -83.5 17.5t-56.5 38.5q-20 18 -42.5 32.5t-52.5 14.5q-39 0 -56.5 -24.5t-19.5 -53.5h-119q2 39 22.5 82t61 73t101.5 30q47 0 79.5 -18.5t55.5 -36.5q24 -19 48 -34t52 -15q38 0 51 23t15 54h119q-2 -37 -19.5 -80t-55.5 -73t-100 -30zM343 1222l220 253h150
l221 -253h-148l-148 175l-149 -175h-146z" />
    <glyph glyph-name="uni1EAB.ss01" horiz-adv-x="1306" 
d="M616 -21q-132 0 -250 60t-192.5 183.5t-74.5 314.5q0 137 43.5 239t117.5 169t166.5 100.5t189.5 33.5q100 0 188.5 -36.5t152.5 -107.5v127h217v-1062h-217v121q-64 -71 -152.5 -106.5t-188.5 -35.5zM657 169q79 0 147 35t110.5 103.5t42.5 166.5v116q0 98 -42.5 165
t-111 100.5t-146.5 33.5q-86 0 -161.5 -34.5t-122 -112t-46.5 -206.5q0 -130 46.5 -211t122 -118.5t161.5 -37.5zM784 1539q-51 0 -83.5 17.5t-56.5 38.5q-20 18 -42.5 32.5t-52.5 14.5q-39 0 -56.5 -24.5t-19.5 -53.5h-119q2 39 22.5 82t61 73t101.5 30q47 0 79.5 -18.5
t55.5 -36.5q24 -19 48 -34t52 -15q38 0 51 23t15 54h119q-2 -37 -19.5 -80t-55.5 -73t-100 -30zM360 1222l220 253h150l221 -253h-148l-148 175l-149 -175h-146z" />
    <glyph glyph-name="uni0201" unicode="&#x201;" horiz-adv-x="1231" 
d="M510 -21q-180 0 -290.5 84t-110.5 234q0 107 56.5 177t156 108.5t226.5 50.5q188 19 266 37t78 59v2q0 81 -69 123t-197 42q-135 0 -208.5 -47.5t-73.5 -150.5h-213q0 122 63.5 207t175.5 129.5t257 44.5q133 0 242.5 -40.5t174.5 -120.5t65 -199v-507q0 -37 2.5 -71.5
t11.5 -61.5q9 -31 21.5 -51.5t20.5 -27.5h-216q-6 6 -17.5 25.5t-20.5 45.5q-8 22 -12 50q-57 -65 -157.5 -103.5t-231.5 -38.5zM555 159q93 0 170 29.5t122.5 90t45.5 152.5v92q-62 -18 -139 -29.5t-157 -19.5q-135 -13 -203 -47t-68 -114q0 -154 229 -154zM875 1222h-124
l-183 253h151zM560 1222h-125l-198 253h152z" />
    <glyph glyph-name="uni0201.ss01" horiz-adv-x="1306" 
d="M616 -21q-132 0 -250 60t-192.5 183.5t-74.5 314.5q0 137 43.5 239t117.5 169t166.5 100.5t189.5 33.5q100 0 188.5 -36.5t152.5 -107.5v127h217v-1062h-217v121q-64 -71 -152.5 -106.5t-188.5 -35.5zM657 169q79 0 147 35t110.5 103.5t42.5 166.5v116q0 98 -42.5 165
t-111 100.5t-146.5 33.5q-86 0 -161.5 -34.5t-122 -112t-46.5 -206.5q0 -130 46.5 -211t122 -118.5t161.5 -37.5zM892 1222h-124l-183 253h151zM577 1222h-125l-198 253h152z" />
    <glyph glyph-name="adieresis" unicode="&#xe4;" horiz-adv-x="1231" 
d="M510 -21q-180 0 -290.5 84t-110.5 234q0 107 56.5 177t156 108.5t226.5 50.5q188 19 266 37t78 59v2q0 81 -69 123t-197 42q-135 0 -208.5 -47.5t-73.5 -150.5h-213q0 122 63.5 207t175.5 129.5t257 44.5q133 0 242.5 -40.5t174.5 -120.5t65 -199v-507q0 -37 2.5 -71.5
t11.5 -61.5q9 -31 21.5 -51.5t20.5 -27.5h-216q-6 6 -17.5 25.5t-20.5 45.5q-8 22 -12 50q-57 -65 -157.5 -103.5t-231.5 -38.5zM555 159q93 0 170 29.5t122.5 90t45.5 152.5v92q-62 -18 -139 -29.5t-157 -19.5q-135 -13 -203 -47t-68 -114q0 -154 229 -154zM429 1279
q-51 0 -89 28.5t-38 77.5q0 50 38 78t89 28q50 0 88 -28t38 -78t-38 -78t-88 -28zM849 1279q-51 0 -88.5 28.5t-37.5 77.5q0 50 37.5 78t88.5 28t89 -28t38 -78t-38 -78t-89 -28z" />
    <glyph glyph-name="adieresis.ss01" horiz-adv-x="1306" 
d="M616 -21q-132 0 -250 60t-192.5 183.5t-74.5 314.5q0 137 43.5 239t117.5 169t166.5 100.5t189.5 33.5q100 0 188.5 -36.5t152.5 -107.5v127h217v-1062h-217v121q-64 -71 -152.5 -106.5t-188.5 -35.5zM657 169q79 0 147 35t110.5 103.5t42.5 166.5v116q0 98 -42.5 165
t-111 100.5t-146.5 33.5q-86 0 -161.5 -34.5t-122 -112t-46.5 -206.5q0 -130 46.5 -211t122 -118.5t161.5 -37.5zM445 1279q-51 0 -89 28.5t-38 77.5q0 50 38 78t89 28q50 0 88 -28t38 -78t-38 -78t-88 -28zM865 1279q-51 0 -88.5 28.5t-37.5 77.5q0 50 37.5 78t88.5 28
t89 -28t38 -78t-38 -78t-89 -28z" />
    <glyph glyph-name="uni01DF" unicode="&#x1df;" horiz-adv-x="1231" 
d="M510 -21q-180 0 -290.5 84t-110.5 234q0 107 56.5 177t156 108.5t226.5 50.5q188 19 266 37t78 59v2q0 81 -69 123t-197 42q-135 0 -208.5 -47.5t-73.5 -150.5h-213q0 122 63.5 207t175.5 129.5t257 44.5q133 0 242.5 -40.5t174.5 -120.5t65 -199v-507q0 -37 2.5 -71.5
t11.5 -61.5q9 -31 21.5 -51.5t20.5 -27.5h-216q-6 6 -17.5 25.5t-20.5 45.5q-8 22 -12 50q-57 -65 -157.5 -103.5t-231.5 -38.5zM555 159q93 0 170 29.5t122.5 90t45.5 152.5v92q-62 -18 -139 -29.5t-157 -19.5q-135 -13 -203 -47t-68 -114q0 -154 229 -154zM429 1279
q-51 0 -89 28.5t-38 77.5q0 50 38 78t89 28q50 0 88 -28t38 -78t-38 -78t-88 -28zM849 1279q-51 0 -88.5 28.5t-37.5 77.5q0 50 37.5 78t88.5 28t89 -28t38 -78t-38 -78t-89 -28zM362 1626v94h553v-94h-553z" />
    <glyph glyph-name="uni01DF.ss01" horiz-adv-x="1306" 
d="M616 -21q-132 0 -250 60t-192.5 183.5t-74.5 314.5q0 137 43.5 239t117.5 169t166.5 100.5t189.5 33.5q100 0 188.5 -36.5t152.5 -107.5v127h217v-1062h-217v121q-64 -71 -152.5 -106.5t-188.5 -35.5zM657 169q79 0 147 35t110.5 103.5t42.5 166.5v116q0 98 -42.5 165
t-111 100.5t-146.5 33.5q-86 0 -161.5 -34.5t-122 -112t-46.5 -206.5q0 -130 46.5 -211t122 -118.5t161.5 -37.5zM445 1279q-51 0 -89 28.5t-38 77.5q0 50 38 78t89 28q50 0 88 -28t38 -78t-38 -78t-88 -28zM865 1279q-51 0 -88.5 28.5t-37.5 77.5q0 50 37.5 78t88.5 28
t89 -28t38 -78t-38 -78t-89 -28zM378 1626v94h553v-94h-553z" />
    <glyph glyph-name="uni1EA1" unicode="&#x1ea1;" horiz-adv-x="1231" 
d="M510 -21q-180 0 -290.5 84t-110.5 234q0 107 56.5 177t156 108.5t226.5 50.5q188 19 266 37t78 59v2q0 81 -69 123t-197 42q-135 0 -208.5 -47.5t-73.5 -150.5h-213q0 122 63.5 207t175.5 129.5t257 44.5q133 0 242.5 -40.5t174.5 -120.5t65 -199v-507q0 -37 2.5 -71.5
t11.5 -61.5q9 -31 21.5 -51.5t20.5 -27.5h-216q-6 6 -17.5 25.5t-20.5 45.5q-8 22 -12 50q-57 -65 -157.5 -103.5t-231.5 -38.5zM555 159q93 0 170 29.5t122.5 90t45.5 152.5v92q-62 -18 -139 -29.5t-157 -19.5q-135 -13 -203 -47t-68 -114q0 -154 229 -154zM610 -364
q-55 0 -96 30.5t-41 83.5t41 83t96 30q54 0 95 -30t41 -83q0 -54 -41 -84t-95 -30z" />
    <glyph glyph-name="uni1EA1.ss01" horiz-adv-x="1306" 
d="M616 -21q-132 0 -250 60t-192.5 183.5t-74.5 314.5q0 137 43.5 239t117.5 169t166.5 100.5t189.5 33.5q100 0 188.5 -36.5t152.5 -107.5v127h217v-1062h-217v121q-64 -71 -152.5 -106.5t-188.5 -35.5zM657 169q79 0 147 35t110.5 103.5t42.5 166.5v116q0 98 -42.5 165
t-111 100.5t-146.5 33.5q-86 0 -161.5 -34.5t-122 -112t-46.5 -206.5q0 -130 46.5 -211t122 -118.5t161.5 -37.5zM661 -364q-55 0 -96 30.5t-41 83.5t41 83t96 30q54 0 95 -30t41 -83q0 -54 -41 -84t-95 -30z" />
    <glyph glyph-name="agrave" unicode="&#xe0;" horiz-adv-x="1231" 
d="M510 -21q-180 0 -290.5 84t-110.5 234q0 107 56.5 177t156 108.5t226.5 50.5q188 19 266 37t78 59v2q0 81 -69 123t-197 42q-135 0 -208.5 -47.5t-73.5 -150.5h-213q0 122 63.5 207t175.5 129.5t257 44.5q133 0 242.5 -40.5t174.5 -120.5t65 -199v-507q0 -37 2.5 -71.5
t11.5 -61.5q9 -31 21.5 -51.5t20.5 -27.5h-216q-6 6 -17.5 25.5t-20.5 45.5q-8 22 -12 50q-57 -65 -157.5 -103.5t-231.5 -38.5zM555 159q93 0 170 29.5t122.5 90t45.5 152.5v92q-62 -18 -139 -29.5t-157 -19.5q-135 -13 -203 -47t-68 -114q0 -154 229 -154zM767 1220h-161
l-263 253h184z" />
    <glyph glyph-name="agrave.ss01" horiz-adv-x="1306" 
d="M616 -21q-132 0 -250 60t-192.5 183.5t-74.5 314.5q0 137 43.5 239t117.5 169t166.5 100.5t189.5 33.5q100 0 188.5 -36.5t152.5 -107.5v127h217v-1062h-217v121q-64 -71 -152.5 -106.5t-188.5 -35.5zM657 169q79 0 147 35t110.5 103.5t42.5 166.5v116q0 98 -42.5 165
t-111 100.5t-146.5 33.5q-86 0 -161.5 -34.5t-122 -112t-46.5 -206.5q0 -130 46.5 -211t122 -118.5t161.5 -37.5zM784 1220h-161l-263 253h184z" />
    <glyph glyph-name="uni1EA3" unicode="&#x1ea3;" horiz-adv-x="1231" 
d="M510 -21q-180 0 -290.5 84t-110.5 234q0 107 56.5 177t156 108.5t226.5 50.5q188 19 266 37t78 59v2q0 81 -69 123t-197 42q-135 0 -208.5 -47.5t-73.5 -150.5h-213q0 122 63.5 207t175.5 129.5t257 44.5q133 0 242.5 -40.5t174.5 -120.5t65 -199v-507q0 -37 2.5 -71.5
t11.5 -61.5q9 -31 21.5 -51.5t20.5 -27.5h-216q-6 6 -17.5 25.5t-20.5 45.5q-8 22 -12 50q-57 -65 -157.5 -103.5t-231.5 -38.5zM555 159q93 0 170 29.5t122.5 90t45.5 152.5v92q-62 -18 -139 -29.5t-157 -19.5q-135 -13 -203 -47t-68 -114q0 -154 229 -154zM441 1502
q109 0 195.5 -8.5t136.5 -34.5t50 -81q0 -71 -76 -102t-177 -31l-25 63q34 1 73 7t66 19t27 36q0 38 -72.5 47.5t-197.5 9.5v75z" />
    <glyph glyph-name="uni1EA3.ss01" horiz-adv-x="1306" 
d="M616 -21q-132 0 -250 60t-192.5 183.5t-74.5 314.5q0 137 43.5 239t117.5 169t166.5 100.5t189.5 33.5q100 0 188.5 -36.5t152.5 -107.5v127h217v-1062h-217v121q-64 -71 -152.5 -106.5t-188.5 -35.5zM657 169q79 0 147 35t110.5 103.5t42.5 166.5v116q0 98 -42.5 165
t-111 100.5t-146.5 33.5q-86 0 -161.5 -34.5t-122 -112t-46.5 -206.5q0 -130 46.5 -211t122 -118.5t161.5 -37.5zM457 1502q109 0 195.5 -8.5t136.5 -34.5t50 -81q0 -71 -76 -102t-177 -31l-25 63q34 1 73 7t66 19t27 36q0 38 -72.5 47.5t-197.5 9.5v75z" />
    <glyph glyph-name="uni0203" unicode="&#x203;" horiz-adv-x="1231" 
d="M510 -21q-180 0 -290.5 84t-110.5 234q0 107 56.5 177t156 108.5t226.5 50.5q188 19 266 37t78 59v2q0 81 -69 123t-197 42q-135 0 -208.5 -47.5t-73.5 -150.5h-213q0 122 63.5 207t175.5 129.5t257 44.5q133 0 242.5 -40.5t174.5 -120.5t65 -199v-507q0 -37 2.5 -71.5
t11.5 -61.5q9 -31 21.5 -51.5t20.5 -27.5h-216q-6 6 -17.5 25.5t-20.5 45.5q-8 22 -12 50q-57 -65 -157.5 -103.5t-231.5 -38.5zM555 159q93 0 170 29.5t122.5 90t45.5 152.5v92q-62 -18 -139 -29.5t-157 -19.5q-135 -13 -203 -47t-68 -114q0 -154 229 -154zM382 1270
q0 108 73.5 162.5t183.5 54.5t183.5 -54.5t73.5 -162.5h-131q0 61 -34 94.5t-92 33.5q-57 0 -91 -33.5t-34 -94.5h-132z" />
    <glyph glyph-name="uni0203.ss01" horiz-adv-x="1306" 
d="M616 -21q-132 0 -250 60t-192.5 183.5t-74.5 314.5q0 137 43.5 239t117.5 169t166.5 100.5t189.5 33.5q100 0 188.5 -36.5t152.5 -107.5v127h217v-1062h-217v121q-64 -71 -152.5 -106.5t-188.5 -35.5zM657 169q79 0 147 35t110.5 103.5t42.5 166.5v116q0 98 -42.5 165
t-111 100.5t-146.5 33.5q-86 0 -161.5 -34.5t-122 -112t-46.5 -206.5q0 -130 46.5 -211t122 -118.5t161.5 -37.5zM398 1270q0 108 73.5 162.5t183.5 54.5t183.5 -54.5t73.5 -162.5h-131q0 61 -34 94.5t-92 33.5q-57 0 -91 -33.5t-34 -94.5h-132z" />
    <glyph glyph-name="amacron" unicode="&#x101;" horiz-adv-x="1231" 
d="M510 -21q-180 0 -290.5 84t-110.5 234q0 107 56.5 177t156 108.5t226.5 50.5q188 19 266 37t78 59v2q0 81 -69 123t-197 42q-135 0 -208.5 -47.5t-73.5 -150.5h-213q0 122 63.5 207t175.5 129.5t257 44.5q133 0 242.5 -40.5t174.5 -120.5t65 -199v-507q0 -37 2.5 -71.5
t11.5 -61.5q9 -31 21.5 -51.5t20.5 -27.5h-216q-6 6 -17.5 25.5t-20.5 45.5q-8 22 -12 50q-57 -65 -157.5 -103.5t-231.5 -38.5zM555 159q93 0 170 29.5t122.5 90t45.5 152.5v92q-62 -18 -139 -29.5t-157 -19.5q-135 -13 -203 -47t-68 -114q0 -154 229 -154zM363 1308v94
h553v-94h-553z" />
    <glyph glyph-name="amacron.ss01" horiz-adv-x="1306" 
d="M616 -21q-132 0 -250 60t-192.5 183.5t-74.5 314.5q0 137 43.5 239t117.5 169t166.5 100.5t189.5 33.5q100 0 188.5 -36.5t152.5 -107.5v127h217v-1062h-217v121q-64 -71 -152.5 -106.5t-188.5 -35.5zM657 169q79 0 147 35t110.5 103.5t42.5 166.5v116q0 98 -42.5 165
t-111 100.5t-146.5 33.5q-86 0 -161.5 -34.5t-122 -112t-46.5 -206.5q0 -130 46.5 -211t122 -118.5t161.5 -37.5zM379 1308v94h553v-94h-553z" />
    <glyph glyph-name="aogonek" unicode="&#x105;" horiz-adv-x="1231" 
d="M510 -21q-180 0 -290.5 84t-110.5 234q0 107 56.5 177t156 108.5t226.5 50.5q188 19 266 37t78 59v2q0 81 -69 123t-197 42q-135 0 -208.5 -47.5t-73.5 -150.5h-213q0 122 63.5 207t175.5 129.5t257 44.5q133 0 242.5 -40.5t174.5 -120.5t65 -199v-507q0 -37 2.5 -71.5
t11.5 -61.5q9 -31 21.5 -51.5t20.5 -27.5h-216q-6 6 -17.5 25.5t-20.5 45.5q-8 22 -12 50q-57 -65 -157.5 -103.5t-231.5 -38.5zM555 159q93 0 170 29.5t122.5 90t45.5 152.5v92q-62 -18 -139 -29.5t-157 -19.5q-135 -13 -203 -47t-68 -114q0 -154 229 -154zM1165 -322v-109
q-20 -3 -44.5 -5t-48.5 -2q-87 0 -149 37t-62 121q0 51 30.5 105t74.5 100t83 75h116q-34 -30 -76 -75t-73 -92.5t-31 -84.5q0 -42 28 -60t72 -18q19 0 41 2.5t39 5.5z" />
    <glyph glyph-name="aogonek.ss01" horiz-adv-x="1306" 
d="M616 -21q-132 0 -250 60t-192.5 183.5t-74.5 314.5q0 137 43.5 239t117.5 169t166.5 100.5t189.5 33.5q100 0 188.5 -36.5t152.5 -107.5v127h217v-1062h-217v121q-64 -71 -152.5 -106.5t-188.5 -35.5zM657 169q79 0 147 35t110.5 103.5t42.5 166.5v116q0 98 -42.5 165
t-111 100.5t-146.5 33.5q-86 0 -161.5 -34.5t-122 -112t-46.5 -206.5q0 -130 46.5 -211t122 -118.5t161.5 -37.5zM1174 -322v-109q-20 -3 -44.5 -5t-48.5 -2q-87 0 -149 37t-62 121q0 51 30.5 105t74.5 100t83 75h116q-34 -30 -76 -75t-73 -92.5t-31 -84.5q0 -42 28 -60
t72 -18q19 0 41 2.5t39 5.5z" />
    <glyph glyph-name="aring" unicode="&#xe5;" horiz-adv-x="1231" 
d="M510 -21q-180 0 -290.5 84t-110.5 234q0 107 56.5 177t156 108.5t226.5 50.5q188 19 266 37t78 59v2q0 81 -69 123t-197 42q-135 0 -208.5 -47.5t-73.5 -150.5h-213q0 122 63.5 207t175.5 129.5t257 44.5q133 0 242.5 -40.5t174.5 -120.5t65 -199v-507q0 -37 2.5 -71.5
t11.5 -61.5q9 -31 21.5 -51.5t20.5 -27.5h-216q-6 6 -17.5 25.5t-20.5 45.5q-8 22 -12 50q-57 -65 -157.5 -103.5t-231.5 -38.5zM555 159q93 0 170 29.5t122.5 90t45.5 152.5v92q-62 -18 -139 -29.5t-157 -19.5q-135 -13 -203 -47t-68 -114q0 -154 229 -154zM639 1149
q-84 0 -144.5 60t-60.5 145q0 84 60.5 144.5t144.5 60.5q85 0 145 -60.5t60 -144.5q0 -85 -60 -145t-145 -60zM639 1247q45 0 76 31t31 76q0 44 -31 75t-76 31q-44 0 -75 -31t-31 -75q0 -45 31 -76t75 -31z" />
    <glyph glyph-name="aring.ss01" horiz-adv-x="1306" 
d="M616 -21q-132 0 -250 60t-192.5 183.5t-74.5 314.5q0 137 43.5 239t117.5 169t166.5 100.5t189.5 33.5q100 0 188.5 -36.5t152.5 -107.5v127h217v-1062h-217v121q-64 -71 -152.5 -106.5t-188.5 -35.5zM657 169q79 0 147 35t110.5 103.5t42.5 166.5v116q0 98 -42.5 165
t-111 100.5t-146.5 33.5q-86 0 -161.5 -34.5t-122 -112t-46.5 -206.5q0 -130 46.5 -211t122 -118.5t161.5 -37.5zM655 1149q-84 0 -144.5 60t-60.5 145q0 84 60.5 144.5t144.5 60.5q85 0 145 -60.5t60 -144.5q0 -85 -60 -145t-145 -60zM655 1247q45 0 76 31t31 76
q0 44 -31 75t-76 31q-44 0 -75 -31t-31 -75q0 -45 31 -76t75 -31z" />
    <glyph glyph-name="aringacute" unicode="&#x1fb;" horiz-adv-x="1231" 
d="M510 -21q-180 0 -290.5 84t-110.5 234q0 107 56.5 177t156 108.5t226.5 50.5q188 19 266 37t78 59v2q0 81 -69 123t-197 42q-135 0 -208.5 -47.5t-73.5 -150.5h-213q0 122 63.5 207t175.5 129.5t257 44.5q133 0 242.5 -40.5t174.5 -120.5t65 -199v-507q0 -37 2.5 -71.5
t11.5 -61.5q9 -31 21.5 -51.5t20.5 -27.5h-216q-6 6 -17.5 25.5t-20.5 45.5q-8 22 -12 50q-57 -65 -157.5 -103.5t-231.5 -38.5zM555 159q93 0 170 29.5t122.5 90t45.5 152.5v92q-62 -18 -139 -29.5t-157 -19.5q-135 -13 -203 -47t-68 -114q0 -154 229 -154zM639 1149
q-84 0 -144.5 60t-60.5 145q0 84 60.5 144.5t144.5 60.5q85 0 145 -60.5t60 -144.5q0 -85 -60 -145t-145 -60zM639 1247q45 0 76 31t31 76q0 44 -31 75t-76 31q-44 0 -75 -31t-31 -75q0 -45 31 -76t75 -31zM489 1654l239 253h184l-263 -253h-160z" />
    <glyph glyph-name="aringacute.ss01" horiz-adv-x="1306" 
d="M616 -21q-132 0 -250 60t-192.5 183.5t-74.5 314.5q0 137 43.5 239t117.5 169t166.5 100.5t189.5 33.5q100 0 188.5 -36.5t152.5 -107.5v127h217v-1062h-217v121q-64 -71 -152.5 -106.5t-188.5 -35.5zM657 169q79 0 147 35t110.5 103.5t42.5 166.5v116q0 98 -42.5 165
t-111 100.5t-146.5 33.5q-86 0 -161.5 -34.5t-122 -112t-46.5 -206.5q0 -130 46.5 -211t122 -118.5t161.5 -37.5zM655 1149q-84 0 -144.5 60t-60.5 145q0 84 60.5 144.5t144.5 60.5q85 0 145 -60.5t60 -144.5q0 -85 -60 -145t-145 -60zM655 1247q45 0 76 31t31 76
q0 44 -31 75t-76 31q-44 0 -75 -31t-31 -75q0 -45 31 -76t75 -31zM501 1654l239 253h184l-263 -253h-160z" />
    <glyph glyph-name="atilde" unicode="&#xe3;" horiz-adv-x="1231" 
d="M510 -21q-180 0 -290.5 84t-110.5 234q0 107 56.5 177t156 108.5t226.5 50.5q188 19 266 37t78 59v2q0 81 -69 123t-197 42q-135 0 -208.5 -47.5t-73.5 -150.5h-213q0 122 63.5 207t175.5 129.5t257 44.5q133 0 242.5 -40.5t174.5 -120.5t65 -199v-507q0 -37 2.5 -71.5
t11.5 -61.5q9 -31 21.5 -51.5t20.5 -27.5h-216q-6 6 -17.5 25.5t-20.5 45.5q-8 22 -12 50q-57 -65 -157.5 -103.5t-231.5 -38.5zM555 159q93 0 170 29.5t122.5 90t45.5 152.5v92q-62 -18 -139 -29.5t-157 -19.5q-135 -13 -203 -47t-68 -114q0 -154 229 -154zM941 1453
q-1 -37 -19 -80t-56 -73t-100 -30q-47 0 -81.5 19.5t-58.5 38.5q-22 17 -45.5 31t-54.5 14q-39 0 -54 -24.5t-17 -53.5h-119q2 39 22.5 82t61 73t101.5 30q47 0 80 -18.5t56 -36.5q23 -19 47.5 -34t51.5 -15q38 0 51.5 23t14.5 54h119z" />
    <glyph glyph-name="atilde.ss01" horiz-adv-x="1306" 
d="M616 -21q-132 0 -250 60t-192.5 183.5t-74.5 314.5q0 137 43.5 239t117.5 169t166.5 100.5t189.5 33.5q100 0 188.5 -36.5t152.5 -107.5v127h217v-1062h-217v121q-64 -71 -152.5 -106.5t-188.5 -35.5zM657 169q79 0 147 35t110.5 103.5t42.5 166.5v116q0 98 -42.5 165
t-111 100.5t-146.5 33.5q-86 0 -161.5 -34.5t-122 -112t-46.5 -206.5q0 -130 46.5 -211t122 -118.5t161.5 -37.5zM957 1453q-1 -37 -19 -80t-56 -73t-100 -30q-47 0 -81.5 19.5t-58.5 38.5q-22 17 -45.5 31t-54.5 14q-39 0 -54 -24.5t-17 -53.5h-119q2 39 22.5 82t61 73
t101.5 30q47 0 80 -18.5t56 -36.5q23 -19 47.5 -34t51.5 -15q38 0 51.5 23t14.5 54h119z" />
    <glyph glyph-name="ae" unicode="&#xe6;" horiz-adv-x="2143" 
d="M571 -21q-212 0 -337 90t-125 244q0 108 62 173.5t169.5 95.5t241.5 30q141 0 219 3t109.5 15.5t31.5 42.5v29q0 101 -79.5 151t-207.5 50q-134 0 -221 -50t-87 -153h-214q0 122 70.5 206.5t189 128.5t263.5 44q134 0 245.5 -46t172.5 -139q74 87 184 136t245 49
q166 0 288 -72t188 -197t66 -285q0 -44 -3 -70h-881q19 -140 108.5 -221.5t238.5 -81.5q103 0 169.5 30.5t100 73t37.5 78.5h214q-7 -79 -69.5 -161.5t-177.5 -138.5t-280 -56q-148 0 -265.5 58t-189.5 159q-48 -80 -125 -127.5t-168.5 -68t-182.5 -20.5zM1164 622h661
q0 12 -3 30q-16 103 -97 179t-219 76q-136 0 -227.5 -77t-114.5 -208zM584 158q77 0 155.5 25.5t135.5 93.5t69 197q-67 -10 -151 -13.5t-174 -3.5q-142 0 -217 -25.5t-75 -110.5q0 -83 73 -123t184 -40z" />
    <glyph glyph-name="aeacute" unicode="&#x1fd;" horiz-adv-x="2143" 
d="M571 -21q-212 0 -337 90t-125 244q0 108 62 173.5t169.5 95.5t241.5 30q141 0 219 3t109.5 15.5t31.5 42.5v29q0 101 -79.5 151t-207.5 50q-134 0 -221 -50t-87 -153h-214q0 122 70.5 206.5t189 128.5t263.5 44q134 0 245.5 -46t172.5 -139q74 87 184 136t245 49
q166 0 288 -72t188 -197t66 -285q0 -44 -3 -70h-881q19 -140 108.5 -221.5t238.5 -81.5q103 0 169.5 30.5t100 73t37.5 78.5h214q-7 -79 -69.5 -161.5t-177.5 -138.5t-280 -56q-148 0 -265.5 58t-189.5 159q-48 -80 -125 -127.5t-168.5 -68t-182.5 -20.5zM1164 622h661
q0 12 -3 30q-16 103 -97 179t-219 76q-136 0 -227.5 -77t-114.5 -208zM584 158q77 0 155.5 25.5t135.5 93.5t69 197q-67 -10 -151 -13.5t-174 -3.5q-142 0 -217 -25.5t-75 -110.5q0 -83 73 -123t184 -40zM950 1222l239 253h184l-263 -253h-160z" />
    <glyph glyph-name="b" unicode="b" horiz-adv-x="1283" 
d="M142 0v1563h218v-631q65 69 154 108t187 39q129 0 239 -63.5t177.5 -185.5t67.5 -297q0 -180 -66 -303.5t-176 -187t-242 -63.5q-98 0 -187 40.5t-154 111.5v-131h-218zM659 889q-78 0 -146 -37.5t-110.5 -102.5t-42.5 -147v-137q0 -82 42 -147.5t110.5 -103.5t146.5 -38
q128 0 215.5 87.5t87.5 269.5q0 183 -87.5 269.5t-215.5 86.5z" />
    <glyph glyph-name="c" unicode="c" horiz-adv-x="1262" 
d="M657 -21q-161 0 -287 67.5t-198.5 192t-72.5 294.5q0 169 72.5 291.5t198.5 188.5t287 66t274 -62.5t173 -156.5t60 -190v-7h-215q0 5 -1 11.5t-2 12.5q-13 88 -90 146.5t-201 58.5q-92 0 -168 -39.5t-122 -119.5t-46 -200t45.5 -201.5t122 -123.5t168.5 -42
q148 0 217.5 67t76.5 157h215q0 -97 -58 -192t-171 -157t-278 -62z" />
    <glyph glyph-name="cacute" unicode="&#x107;" horiz-adv-x="1262" 
d="M657 -21q-161 0 -287 67.5t-198.5 192t-72.5 294.5q0 169 72.5 291.5t198.5 188.5t287 66t274 -62.5t173 -156.5t60 -190v-7h-215q0 5 -1 11.5t-2 12.5q-13 88 -90 146.5t-201 58.5q-92 0 -168 -39.5t-122 -119.5t-46 -200t45.5 -201.5t122 -123.5t168.5 -42
q148 0 217.5 67t76.5 157h215q0 -97 -58 -192t-171 -157t-278 -62zM505 1222l239 253h184l-263 -253h-160z" />
    <glyph glyph-name="ccaron" unicode="&#x10d;" horiz-adv-x="1262" 
d="M657 -21q-161 0 -287 67.5t-198.5 192t-72.5 294.5q0 169 72.5 291.5t198.5 188.5t287 66t274 -62.5t173 -156.5t60 -190v-7h-215q0 5 -1 11.5t-2 12.5q-13 88 -90 146.5t-201 58.5q-92 0 -168 -39.5t-122 -119.5t-46 -200t45.5 -201.5t122 -123.5t168.5 -42
q148 0 217.5 67t76.5 157h215q0 -97 -58 -192t-171 -157t-278 -62zM344 1475h146l149 -175l148 175h148l-221 -253h-150z" />
    <glyph glyph-name="ccedilla" unicode="&#xe7;" horiz-adv-x="1262" 
d="M742 -91q52 0 97 -35.5t45 -113.5q0 -62 -35.5 -102.5t-92 -60t-120.5 -19.5q-58 0 -111.5 14t-72.5 28l44 85q16 -10 57 -25t91 -15q59 0 99 25.5t40 73.5q0 39 -21 57.5t-54 18.5q-25 0 -51 -10t-39 -27l-91 26l63 153q-143 14 -254 85t-174 189.5t-63 276.5
q0 169 72.5 291.5t198.5 188.5t287 66t274 -62.5t173 -156.5t60 -190v-7h-215q0 5 -1 11.5t-2 12.5q-13 88 -90 146.5t-201 58.5q-92 0 -168 -39.5t-122 -119.5t-46 -200t45.5 -201.5t122 -123.5t168.5 -42q148 0 217.5 67t76.5 157h215q0 -94 -54 -185.5t-158.5 -154.5
t-258.5 -70l-37 -91q41 20 86 20z" />
    <glyph glyph-name="uni1E09" unicode="&#x1e09;" horiz-adv-x="1262" 
d="M742 -91q52 0 97 -35.5t45 -113.5q0 -62 -35.5 -102.5t-92 -60t-120.5 -19.5q-58 0 -111.5 14t-72.5 28l44 85q16 -10 57 -25t91 -15q59 0 99 25.5t40 73.5q0 39 -21 57.5t-54 18.5q-25 0 -51 -10t-39 -27l-91 26l63 153q-143 14 -254 85t-174 189.5t-63 276.5
q0 169 72.5 291.5t198.5 188.5t287 66t274 -62.5t173 -156.5t60 -190v-7h-215q0 5 -1 11.5t-2 12.5q-13 88 -90 146.5t-201 58.5q-92 0 -168 -39.5t-122 -119.5t-46 -200t45.5 -201.5t122 -123.5t168.5 -42q148 0 217.5 67t76.5 157h215q0 -94 -54 -185.5t-158.5 -154.5
t-258.5 -70l-37 -91q41 20 86 20zM505 1222l239 253h184l-263 -253h-160z" />
    <glyph glyph-name="ccircumflex" unicode="&#x109;" horiz-adv-x="1262" 
d="M657 -21q-161 0 -287 67.5t-198.5 192t-72.5 294.5q0 169 72.5 291.5t198.5 188.5t287 66t274 -62.5t173 -156.5t60 -190v-7h-215q0 5 -1 11.5t-2 12.5q-13 88 -90 146.5t-201 58.5q-92 0 -168 -39.5t-122 -119.5t-46 -200t45.5 -201.5t122 -123.5t168.5 -42
q148 0 217.5 67t76.5 157h215q0 -97 -58 -192t-171 -157t-278 -62zM344 1222l220 253h150l221 -253h-148l-148 175l-149 -175h-146z" />
    <glyph glyph-name="cdotaccent" unicode="&#x10b;" horiz-adv-x="1262" 
d="M657 -21q-161 0 -287 67.5t-198.5 192t-72.5 294.5q0 169 72.5 291.5t198.5 188.5t287 66t274 -62.5t173 -156.5t60 -190v-7h-215q0 5 -1 11.5t-2 12.5q-13 88 -90 146.5t-201 58.5q-92 0 -168 -39.5t-122 -119.5t-46 -200t45.5 -201.5t122 -123.5t168.5 -42
q148 0 217.5 67t76.5 157h215q0 -97 -58 -192t-171 -157t-278 -62zM640 1281q-55 0 -96 30.5t-41 83.5q0 54 41 84t96 30t95.5 -30t40.5 -84t-40.5 -84t-95.5 -30z" />
    <glyph glyph-name="d" unicode="d" horiz-adv-x="1277" 
d="M582 -21q-131 0 -241 63.5t-176 187t-66 303.5q0 175 67 297t177 185.5t239 63.5q99 0 187.5 -38.5t153.5 -108.5v631h218v-1563h-218v130q-63 -70 -151 -110.5t-190 -40.5zM625 176q80 0 148 38.5t109 105.5t41 153v129q0 82 -42.5 147t-110.5 102.5t-145 37.5
q-129 0 -216 -86.5t-87 -269.5q0 -182 87.5 -269.5t215.5 -87.5z" />
    <glyph glyph-name="eth" unicode="&#xf0;" horiz-adv-x="1347" 
d="M655 -20q-164 0 -289.5 71t-196 195.5t-70.5 285.5q0 160 70.5 283.5t196 193t289.5 69.5q155 0 280 -65q-32 86 -77 150.5t-99 112.5l-89 -79l-146 78l103 91q-49 26 -102 45.5t-109 34.5l114 119q59 -16 114.5 -37.5t107.5 -50.5l94 84l144 -80l-105 -93
q148 -122 237 -329.5t89 -526.5q0 -161 -70.5 -285.5t-196 -195.5t-289.5 -71zM655 162q100 0 176.5 46.5t119.5 129.5t43 194q0 165 -94.5 264.5t-244.5 99.5t-244.5 -99.5t-94.5 -264.5q0 -111 43 -194t119.5 -129.5t176.5 -46.5z" />
    <glyph glyph-name="dcaron" unicode="&#x10f;" horiz-adv-x="1407" 
d="M582 -21q-131 0 -241 63.5t-176 187t-66 303.5q0 175 67 297t177 185.5t239 63.5q99 0 187.5 -38.5t153.5 -108.5v631h218v-1563h-218v130q-63 -70 -151 -110.5t-190 -40.5zM625 176q80 0 148 38.5t109 105.5t41 153v129q0 82 -42.5 147t-110.5 102.5t-145 37.5
q-129 0 -216 -86.5t-87 -269.5q0 -182 87.5 -269.5t215.5 -87.5zM1405 1563q0 -79 -9 -161t-19.5 -146t-16.5 -89h-106q6 26 12.5 88.5t11.5 143.5t5 164h122z" />
    <glyph glyph-name="dcroat" unicode="&#x111;" horiz-adv-x="1280" 
d="M582 -21q-131 0 -241 63.5t-176 187t-66 303.5q0 175 67 297t177 185.5t239 63.5q99 0 187.5 -38.5t153.5 -108.5v332h-367v140h367v159h218v-159h109v-140h-109v-1264h-218v130q-63 -70 -151 -110.5t-190 -40.5zM625 176q80 0 148 38.5t109 105.5t41 153v129
q0 82 -42.5 147t-110.5 102.5t-145 37.5q-129 0 -216 -86.5t-87 -269.5q0 -182 87.5 -269.5t215.5 -87.5z" />
    <glyph glyph-name="uni1E0D" unicode="&#x1e0d;" horiz-adv-x="1277" 
d="M582 -21q-131 0 -241 63.5t-176 187t-66 303.5q0 175 67 297t177 185.5t239 63.5q99 0 187.5 -38.5t153.5 -108.5v631h218v-1563h-218v130q-63 -70 -151 -110.5t-190 -40.5zM625 176q80 0 148 38.5t109 105.5t41 153v129q0 82 -42.5 147t-110.5 102.5t-145 37.5
q-129 0 -216 -86.5t-87 -269.5q0 -182 87.5 -269.5t215.5 -87.5zM725 -373q-55 0 -96 30.5t-41 83.5t41 83t96 30q54 0 95 -30t41 -83q0 -54 -41 -84t-95 -30z" />
    <glyph glyph-name="uni1E0F" unicode="&#x1e0f;" horiz-adv-x="1277" 
d="M582 -21q-131 0 -241 63.5t-176 187t-66 303.5q0 175 67 297t177 185.5t239 63.5q99 0 187.5 -38.5t153.5 -108.5v631h218v-1563h-218v130q-63 -70 -151 -110.5t-190 -40.5zM625 176q80 0 148 38.5t109 105.5t41 153v129q0 82 -42.5 147t-110.5 102.5t-145 37.5
q-129 0 -216 -86.5t-87 -269.5q0 -182 87.5 -269.5t215.5 -87.5zM463 -283v95h519v-95h-519z" />
    <glyph glyph-name="uni01C6" unicode="&#x1c6;" horiz-adv-x="2266" 
d="M582 -21q-131 0 -241 63.5t-176 187t-66 303.5q0 175 67 297t177 185.5t239 63.5q99 0 187.5 -38.5t153.5 -108.5v631h218v-1563h-218v130q-63 -70 -151 -110.5t-190 -40.5zM625 176q80 0 148 38.5t109 105.5t41 153v129q0 82 -42.5 147t-110.5 102.5t-145 37.5
q-129 0 -216 -86.5t-87 -269.5q0 -182 87.5 -269.5t215.5 -87.5zM2196 185v-185h-849v177l597 700h-574v185h816v-177l-595 -700h605zM1482 1475h146l149 -175l148 175h148l-221 -253h-150z" />
    <glyph glyph-name="e" unicode="e" horiz-adv-x="1296" 
d="M1182 334q-8 -86 -70 -168t-177 -135t-280 -53t-290.5 70t-195.5 194t-70 286q0 164 71 288t196.5 193.5t289.5 69.5q166 0 287.5 -70t187.5 -193t66 -283q0 -18 -1 -43.5t-3 -34.5h-877q20 -139 109.5 -217t236.5 -78q103 0 168.5 27t98.5 67t37 80h216zM658 899
q-135 0 -225 -73t-114 -202h651q-8 112 -86 193.5t-226 81.5z" />
    <glyph glyph-name="eacute" unicode="&#xe9;" horiz-adv-x="1296" 
d="M1182 334q-8 -86 -70 -168t-177 -135t-280 -53t-290.5 70t-195.5 194t-70 286q0 164 71 288t196.5 193.5t289.5 69.5q166 0 287.5 -70t187.5 -193t66 -283q0 -18 -1 -43.5t-3 -34.5h-877q20 -139 109.5 -217t236.5 -78q103 0 168.5 27t98.5 67t37 80h216zM658 899
q-135 0 -225 -73t-114 -202h651q-8 112 -86 193.5t-226 81.5zM520 1222l239 253h184l-263 -253h-160z" />
    <glyph glyph-name="ebreve" unicode="&#x115;" horiz-adv-x="1296" 
d="M1182 334q-8 -86 -70 -168t-177 -135t-280 -53t-290.5 70t-195.5 194t-70 286q0 164 71 288t196.5 193.5t289.5 69.5q166 0 287.5 -70t187.5 -193t66 -283q0 -18 -1 -43.5t-3 -34.5h-877q20 -139 109.5 -217t236.5 -78q103 0 168.5 27t98.5 67t37 80h216zM658 899
q-135 0 -225 -73t-114 -202h651q-8 112 -86 193.5t-226 81.5zM397 1495h131q0 -62 34 -102.5t92 -40.5t92 40.5t34 102.5h131q0 -109 -73.5 -170.5t-183.5 -61.5t-183.5 61.5t-73.5 170.5z" />
    <glyph glyph-name="ecaron" unicode="&#x11b;" horiz-adv-x="1296" 
d="M1182 334q-8 -86 -70 -168t-177 -135t-280 -53t-290.5 70t-195.5 194t-70 286q0 164 71 288t196.5 193.5t289.5 69.5q166 0 287.5 -70t187.5 -193t66 -283q0 -18 -1 -43.5t-3 -34.5h-877q20 -139 109.5 -217t236.5 -78q103 0 168.5 27t98.5 67t37 80h216zM658 899
q-135 0 -225 -73t-114 -202h651q-8 112 -86 193.5t-226 81.5zM359 1475h146l149 -175l148 175h148l-221 -253h-150z" />
    <glyph glyph-name="uni0229" unicode="&#x229;" horiz-adv-x="1293" 
d="M753 -91q52 0 97 -35.5t45 -113.5q0 -62 -35.5 -102.5t-92 -60t-120.5 -19.5q-58 0 -111.5 14t-72.5 28l44 85q16 -10 57 -25t91 -15q59 0 99 25.5t40 73.5q0 39 -21 57.5t-54 18.5q-25 0 -51 -10t-39 -27l-91 26l62 151q-150 12 -263 84.5t-175.5 191.5t-62.5 272
q0 164 71 288t196.5 193.5t289.5 69.5q166 0 287.5 -70t187.5 -193t66 -283q0 -18 -1 -43.5t-3 -34.5h-877q20 -139 109.5 -217t236.5 -78q103 0 168.5 27t98.5 67t37 80h216q-7 -82 -63.5 -160.5t-160.5 -132t-254 -62.5l-37 -90q41 20 86 20zM658 899q-135 0 -225 -73
t-114 -202h651q-8 112 -86 193.5t-226 81.5z" />
    <glyph glyph-name="uni1E1D" unicode="&#x1e1d;" horiz-adv-x="1293" 
d="M753 -91q52 0 97 -35.5t45 -113.5q0 -62 -35.5 -102.5t-92 -60t-120.5 -19.5q-58 0 -111.5 14t-72.5 28l44 85q16 -10 57 -25t91 -15q59 0 99 25.5t40 73.5q0 39 -21 57.5t-54 18.5q-25 0 -51 -10t-39 -27l-91 26l62 151q-150 12 -263 84.5t-175.5 191.5t-62.5 272
q0 164 71 288t196.5 193.5t289.5 69.5q166 0 287.5 -70t187.5 -193t66 -283q0 -18 -1 -43.5t-3 -34.5h-877q20 -139 109.5 -217t236.5 -78q103 0 168.5 27t98.5 67t37 80h216q-7 -82 -63.5 -160.5t-160.5 -132t-254 -62.5l-37 -90q41 20 86 20zM658 899q-135 0 -225 -73
t-114 -202h651q-8 112 -86 193.5t-226 81.5zM397 1495h131q0 -62 34 -102.5t92 -40.5t92 40.5t34 102.5h131q0 -109 -73.5 -170.5t-183.5 -61.5t-183.5 61.5t-73.5 170.5z" />
    <glyph glyph-name="ecircumflex" unicode="&#xea;" horiz-adv-x="1296" 
d="M1182 334q-8 -86 -70 -168t-177 -135t-280 -53t-290.5 70t-195.5 194t-70 286q0 164 71 288t196.5 193.5t289.5 69.5q166 0 287.5 -70t187.5 -193t66 -283q0 -18 -1 -43.5t-3 -34.5h-877q20 -139 109.5 -217t236.5 -78q103 0 168.5 27t98.5 67t37 80h216zM658 899
q-135 0 -225 -73t-114 -202h651q-8 112 -86 193.5t-226 81.5zM359 1222l220 253h150l221 -253h-148l-148 175l-149 -175h-146z" />
    <glyph glyph-name="uni1EBF" unicode="&#x1ebf;" horiz-adv-x="1296" 
d="M1182 334q-8 -86 -70 -168t-177 -135t-280 -53t-290.5 70t-195.5 194t-70 286q0 164 71 288t196.5 193.5t289.5 69.5q166 0 287.5 -70t187.5 -193t66 -283q0 -18 -1 -43.5t-3 -34.5h-877q20 -139 109.5 -217t236.5 -78q103 0 168.5 27t98.5 67t37 80h216zM658 899
q-135 0 -225 -73t-114 -202h651q-8 112 -86 193.5t-226 81.5zM798 1434l190 253h155l-211 -253h-134zM359 1222l220 253h150l221 -253h-148l-148 175l-149 -175h-146z" />
    <glyph glyph-name="uni1EC7" unicode="&#x1ec7;" horiz-adv-x="1296" 
d="M1182 334q-8 -86 -70 -168t-177 -135t-280 -53t-290.5 70t-195.5 194t-70 286q0 164 71 288t196.5 193.5t289.5 69.5q166 0 287.5 -70t187.5 -193t66 -283q0 -18 -1 -43.5t-3 -34.5h-877q20 -139 109.5 -217t236.5 -78q103 0 168.5 27t98.5 67t37 80h216zM658 899
q-135 0 -225 -73t-114 -202h651q-8 112 -86 193.5t-226 81.5zM661 -364q-55 0 -96 30.5t-41 83.5t41 83t96 30q54 0 95 -30t41 -83q0 -54 -41 -84t-95 -30zM359 1222l220 253h150l221 -253h-148l-148 175l-149 -175h-146z" />
    <glyph glyph-name="uni1EC1" unicode="&#x1ec1;" horiz-adv-x="1296" 
d="M1182 334q-8 -86 -70 -168t-177 -135t-280 -53t-290.5 70t-195.5 194t-70 286q0 164 71 288t196.5 193.5t289.5 69.5q166 0 287.5 -70t187.5 -193t66 -283q0 -18 -1 -43.5t-3 -34.5h-877q20 -139 109.5 -217t236.5 -78q103 0 168.5 27t98.5 67t37 80h216zM658 899
q-135 0 -225 -73t-114 -202h651q-8 112 -86 193.5t-226 81.5zM1013 1434h-134l-211 253h155zM360 1222l220 253h150l221 -253h-148l-148 175l-149 -175h-146z" />
    <glyph glyph-name="uni1EC3" unicode="&#x1ec3;" horiz-adv-x="1296" 
d="M1182 334q-8 -86 -70 -168t-177 -135t-280 -53t-290.5 70t-195.5 194t-70 286q0 164 71 288t196.5 193.5t289.5 69.5q166 0 287.5 -70t187.5 -193t66 -283q0 -18 -1 -43.5t-3 -34.5h-877q20 -139 109.5 -217t236.5 -78q103 0 168.5 27t98.5 67t37 80h216zM658 899
q-135 0 -225 -73t-114 -202h651q-8 112 -86 193.5t-226 81.5zM866 1435l-24 58q33 2 69 7t61.5 17t25.5 34q0 35 -68 44t-184 9v69q102 0 181.5 -7.5t126 -32t46.5 -74.5q0 -66 -70 -95t-164 -29zM359 1222l220 253h150l221 -253h-148l-148 175l-149 -175h-146z" />
    <glyph glyph-name="uni1EC5" unicode="&#x1ec5;" horiz-adv-x="1296" 
d="M1182 334q-8 -86 -70 -168t-177 -135t-280 -53t-290.5 70t-195.5 194t-70 286q0 164 71 288t196.5 193.5t289.5 69.5q166 0 287.5 -70t187.5 -193t66 -283q0 -18 -1 -43.5t-3 -34.5h-877q20 -139 109.5 -217t236.5 -78q103 0 168.5 27t98.5 67t37 80h216zM658 899
q-135 0 -225 -73t-114 -202h651q-8 112 -86 193.5t-226 81.5zM783 1539q-51 0 -83.5 17.5t-56.5 38.5q-20 18 -42.5 32.5t-52.5 14.5q-39 0 -56.5 -24.5t-19.5 -53.5h-119q2 39 22.5 82t61 73t101.5 30q47 0 79.5 -18.5t55.5 -36.5q24 -19 48 -34t52 -15q38 0 51 23t15 54
h119q-2 -37 -19.5 -80t-55.5 -73t-100 -30zM359 1222l220 253h150l221 -253h-148l-148 175l-149 -175h-146z" />
    <glyph glyph-name="uni0205" unicode="&#x205;" horiz-adv-x="1296" 
d="M1182 334q-8 -86 -70 -168t-177 -135t-280 -53t-290.5 70t-195.5 194t-70 286q0 164 71 288t196.5 193.5t289.5 69.5q166 0 287.5 -70t187.5 -193t66 -283q0 -18 -1 -43.5t-3 -34.5h-877q20 -139 109.5 -217t236.5 -78q103 0 168.5 27t98.5 67t37 80h216zM658 899
q-135 0 -225 -73t-114 -202h651q-8 112 -86 193.5t-226 81.5zM891 1222h-124l-183 253h151zM576 1222h-125l-198 253h152z" />
    <glyph glyph-name="edieresis" unicode="&#xeb;" horiz-adv-x="1296" 
d="M1182 334q-8 -86 -70 -168t-177 -135t-280 -53t-290.5 70t-195.5 194t-70 286q0 164 71 288t196.5 193.5t289.5 69.5q166 0 287.5 -70t187.5 -193t66 -283q0 -18 -1 -43.5t-3 -34.5h-877q20 -139 109.5 -217t236.5 -78q103 0 168.5 27t98.5 67t37 80h216zM658 899
q-135 0 -225 -73t-114 -202h651q-8 112 -86 193.5t-226 81.5zM444 1279q-51 0 -89 28.5t-38 77.5q0 50 38 78t89 28q50 0 88 -28t38 -78t-38 -78t-88 -28zM864 1279q-51 0 -88.5 28.5t-37.5 77.5q0 50 37.5 78t88.5 28t89 -28t38 -78t-38 -78t-89 -28z" />
    <glyph glyph-name="edotaccent" unicode="&#x117;" horiz-adv-x="1296" 
d="M1182 334q-8 -86 -70 -168t-177 -135t-280 -53t-290.5 70t-195.5 194t-70 286q0 164 71 288t196.5 193.5t289.5 69.5q166 0 287.5 -70t187.5 -193t66 -283q0 -18 -1 -43.5t-3 -34.5h-877q20 -139 109.5 -217t236.5 -78q103 0 168.5 27t98.5 67t37 80h216zM658 899
q-135 0 -225 -73t-114 -202h651q-8 112 -86 193.5t-226 81.5zM655 1281q-55 0 -96 30.5t-41 83.5q0 54 41 84t96 30t95.5 -30t40.5 -84t-40.5 -84t-95.5 -30z" />
    <glyph glyph-name="uni1EB9" unicode="&#x1eb9;" horiz-adv-x="1296" 
d="M1182 334q-8 -86 -70 -168t-177 -135t-280 -53t-290.5 70t-195.5 194t-70 286q0 164 71 288t196.5 193.5t289.5 69.5q166 0 287.5 -70t187.5 -193t66 -283q0 -18 -1 -43.5t-3 -34.5h-877q20 -139 109.5 -217t236.5 -78q103 0 168.5 27t98.5 67t37 80h216zM658 899
q-135 0 -225 -73t-114 -202h651q-8 112 -86 193.5t-226 81.5zM661 -364q-55 0 -96 30.5t-41 83.5t41 83t96 30q54 0 95 -30t41 -83q0 -54 -41 -84t-95 -30z" />
    <glyph glyph-name="egrave" unicode="&#xe8;" horiz-adv-x="1296" 
d="M1182 334q-8 -86 -70 -168t-177 -135t-280 -53t-290.5 70t-195.5 194t-70 286q0 164 71 288t196.5 193.5t289.5 69.5q166 0 287.5 -70t187.5 -193t66 -283q0 -18 -1 -43.5t-3 -34.5h-877q20 -139 109.5 -217t236.5 -78q103 0 168.5 27t98.5 67t37 80h216zM658 899
q-135 0 -225 -73t-114 -202h651q-8 112 -86 193.5t-226 81.5zM783 1220h-161l-263 253h184z" />
    <glyph glyph-name="uni1EBB" unicode="&#x1ebb;" horiz-adv-x="1296" 
d="M1182 334q-8 -86 -70 -168t-177 -135t-280 -53t-290.5 70t-195.5 194t-70 286q0 164 71 288t196.5 193.5t289.5 69.5q166 0 287.5 -70t187.5 -193t66 -283q0 -18 -1 -43.5t-3 -34.5h-877q20 -139 109.5 -217t236.5 -78q103 0 168.5 27t98.5 67t37 80h216zM658 899
q-135 0 -225 -73t-114 -202h651q-8 112 -86 193.5t-226 81.5zM456 1502q109 0 195.5 -8.5t136.5 -34.5t50 -81q0 -71 -76 -102t-177 -31l-25 63q34 1 73 7t66 19t27 36q0 38 -72.5 47.5t-197.5 9.5v75z" />
    <glyph glyph-name="uni0207" unicode="&#x207;" horiz-adv-x="1296" 
d="M1182 334q-8 -86 -70 -168t-177 -135t-280 -53t-290.5 70t-195.5 194t-70 286q0 164 71 288t196.5 193.5t289.5 69.5q166 0 287.5 -70t187.5 -193t66 -283q0 -18 -1 -43.5t-3 -34.5h-877q20 -139 109.5 -217t236.5 -78q103 0 168.5 27t98.5 67t37 80h216zM658 899
q-135 0 -225 -73t-114 -202h651q-8 112 -86 193.5t-226 81.5zM397 1270q0 108 73.5 162.5t183.5 54.5t183.5 -54.5t73.5 -162.5h-131q0 61 -34 94.5t-92 33.5q-57 0 -91 -33.5t-34 -94.5h-132z" />
    <glyph glyph-name="emacron" unicode="&#x113;" horiz-adv-x="1296" 
d="M1182 334q-8 -86 -70 -168t-177 -135t-280 -53t-290.5 70t-195.5 194t-70 286q0 164 71 288t196.5 193.5t289.5 69.5q166 0 287.5 -70t187.5 -193t66 -283q0 -18 -1 -43.5t-3 -34.5h-877q20 -139 109.5 -217t236.5 -78q103 0 168.5 27t98.5 67t37 80h216zM658 899
q-135 0 -225 -73t-114 -202h651q-8 112 -86 193.5t-226 81.5zM378 1308v94h553v-94h-553z" />
    <glyph glyph-name="uni1E17" unicode="&#x1e17;" horiz-adv-x="1296" 
d="M1182 334q-8 -86 -70 -168t-177 -135t-280 -53t-290.5 70t-195.5 194t-70 286q0 164 71 288t196.5 193.5t289.5 69.5q166 0 287.5 -70t187.5 -193t66 -283q0 -18 -1 -43.5t-3 -34.5h-877q20 -139 109.5 -217t236.5 -78q103 0 168.5 27t98.5 67t37 80h216zM658 899
q-135 0 -225 -73t-114 -202h651q-8 112 -86 193.5t-226 81.5zM378 1308v94h553v-94h-553zM520 1562l239 253h184l-263 -253h-160z" />
    <glyph glyph-name="uni1E15" unicode="&#x1e15;" horiz-adv-x="1296" 
d="M1182 334q-8 -86 -70 -168t-177 -135t-280 -53t-290.5 70t-195.5 194t-70 286q0 164 71 288t196.5 193.5t289.5 69.5q166 0 287.5 -70t187.5 -193t66 -283q0 -18 -1 -43.5t-3 -34.5h-877q20 -139 109.5 -217t236.5 -78q103 0 168.5 27t98.5 67t37 80h216zM658 899
q-135 0 -225 -73t-114 -202h651q-8 112 -86 193.5t-226 81.5zM378 1308v94h553v-94h-553zM783 1560h-161l-263 253h184z" />
    <glyph glyph-name="eogonek" unicode="&#x119;" horiz-adv-x="1296" 
d="M892 -302v-109q-20 -3 -44.5 -5t-48.5 -2q-86 0 -148.5 37t-62.5 121q0 63 45 128.5t96 112.5q-36 -3 -74 -3q-165 0 -290.5 70t-195.5 194t-70 286q0 164 71 288t196.5 193.5t289.5 69.5q166 0 287.5 -70t187.5 -193t66 -283q0 -18 -1 -43.5t-3 -34.5h-877
q20 -139 109.5 -217t236.5 -78q103 0 168.5 27t98.5 67t37 80h216q-9 -96 -84.5 -186t-214.5 -136q-34 -31 -74 -75t-68.5 -89t-28.5 -79q0 -43 28 -60.5t72 -17.5q19 0 41 2t39 5zM658 899q-135 0 -225 -73t-114 -202h651q-8 112 -86 193.5t-226 81.5z" />
    <glyph glyph-name="uni1EBD" unicode="&#x1ebd;" horiz-adv-x="1296" 
d="M1182 334q-8 -86 -70 -168t-177 -135t-280 -53t-290.5 70t-195.5 194t-70 286q0 164 71 288t196.5 193.5t289.5 69.5q166 0 287.5 -70t187.5 -193t66 -283q0 -18 -1 -43.5t-3 -34.5h-877q20 -139 109.5 -217t236.5 -78q103 0 168.5 27t98.5 67t37 80h216zM658 899
q-135 0 -225 -73t-114 -202h651q-8 112 -86 193.5t-226 81.5zM956 1453q-1 -37 -19 -80t-56 -73t-100 -30q-47 0 -81.5 19.5t-58.5 38.5q-22 17 -45.5 31t-54.5 14q-39 0 -54 -24.5t-17 -53.5h-119q2 39 22.5 82t61 73t101.5 30q47 0 80 -18.5t56 -36.5q23 -19 47.5 -34
t51.5 -15q38 0 51.5 23t14.5 54h119z" />
    <glyph glyph-name="uni0259" unicode="&#x259;" horiz-adv-x="1296" 
d="M640 -22q-166 0 -287.5 70t-187.5 193t-66 283q0 18 0.5 43.5t1.5 34.5h882q-18 143 -105.5 219t-244.5 76q-104 0 -169 -26.5t-97 -66.5t-37 -81h-216q8 86 70 168t177 135t280 53t290.5 -70t195.5 -194t70 -286q0 -164 -71 -288t-196.5 -193.5t-289.5 -69.5zM638 158
q140 0 229.5 71t112.5 204h-654q8 -112 84 -193.5t228 -81.5z" />
    <glyph glyph-name="uni0292" unicode="&#x292;" horiz-adv-x="1178" 
d="M588 -434q-172 0 -273.5 62t-145.5 170t-44 246v4h218v-4q0 -169 65.5 -233.5t182.5 -64.5q104 0 166 63t62 208q0 139 -73 186.5t-242 47.5h-91l368 631h-621v180h859v-167l-299 -486q167 0 242.5 -107t75.5 -273q0 -206 -109.5 -334.5t-340.5 -128.5z" />
    <glyph glyph-name="uni01EF" unicode="&#x1ef;" horiz-adv-x="1178" 
d="M588 -434q-172 0 -273.5 62t-145.5 170t-44 246v4h218v-4q0 -169 65.5 -233.5t182.5 -64.5q104 0 166 63t62 208q0 139 -73 186.5t-242 47.5h-91l368 631h-621v180h859v-167l-299 -486q167 0 242.5 -107t75.5 -273q0 -206 -109.5 -334.5t-340.5 -128.5zM294 1475h146
l149 -175l148 175h148l-221 -253h-150z" />
    <glyph glyph-name="f" unicode="f" horiz-adv-x="832" 
d="M273 0v882h-229v180h229v116q0 138 55 226.5t146.5 131t201.5 42.5q54 0 84 -7t41 -11v-181q-12 4 -40.5 9t-62.5 5q-86 0 -131 -33t-61.5 -88t-16.5 -120v-90h302v-180h-302v-882h-216z" />
    <glyph glyph-name="g" unicode="g" horiz-adv-x="1232" 
d="M839 85q134 -12 218.5 -65t84.5 -174q0 -137 -138 -219t-410 -82q-260 0 -395.5 75t-135.5 204q0 38 9 68.5t22 50.5l202 -30q-8 -10 -14.5 -30t-6.5 -47q0 -71 87 -101t241 -30q169 0 252.5 34.5t83.5 93.5t-51 74t-123 21l-403 33q-105 9 -171.5 63t-66.5 136
q0 63 38.5 115.5t77.5 76.5q-133 114 -133 300q0 123 62 219.5t170 152t248 55.5q125 0 221 -45.5t146 -111.5l18 140h197l-81 -415q-22 -116 -80.5 -209.5t-158 -147.5t-247.5 -54q-131 0 -235 40q-17 -13 -30 -32t-13 -41q0 -34 28.5 -56t111.5 -29zM601 413
q130 0 205.5 63t75.5 180q0 113 -75.5 178.5t-204.5 65.5q-124 0 -203 -67t-79 -180q0 -114 75.5 -177t205.5 -63z" />
    <glyph glyph-name="g.ss01" horiz-adv-x="1316" 
d="M626 -21q-132 0 -250 60t-192.5 183.5t-74.5 314.5q0 137 43.5 239t117.5 169t166.5 100.5t189.5 33.5q100 0 188.5 -36t152.5 -107v126h217v-1038q0 -132 -45.5 -223t-122.5 -147t-171.5 -81t-192.5 -25q-95 0 -186.5 19.5t-166 62t-118.5 110.5t-44 165v11h217v-11
q0 -64 42 -105.5t111 -62t149 -20.5q86 0 156.5 28t112.5 95.5t42 183.5v97q-64 -71 -152.5 -106.5t-188.5 -35.5zM667 170q79 0 147 35t110.5 103.5t42.5 166.5v116q0 98 -42.5 165t-111 100.5t-146.5 33.5q-86 0 -161.5 -34.5t-122 -112t-46.5 -206.5q0 -130 46.5 -211
t122 -118.5t161.5 -37.5z" />
    <glyph glyph-name="gbreve" unicode="&#x11f;" horiz-adv-x="1232" 
d="M839 85q134 -12 218.5 -65t84.5 -174q0 -137 -138 -219t-410 -82q-260 0 -395.5 75t-135.5 204q0 38 9 68.5t22 50.5l202 -30q-8 -10 -14.5 -30t-6.5 -47q0 -71 87 -101t241 -30q169 0 252.5 34.5t83.5 93.5t-51 74t-123 21l-403 33q-105 9 -171.5 63t-66.5 136
q0 63 38.5 115.5t77.5 76.5q-133 114 -133 300q0 123 62 219.5t170 152t248 55.5q125 0 221 -45.5t146 -111.5l18 140h197l-81 -415q-22 -116 -80.5 -209.5t-158 -147.5t-247.5 -54q-131 0 -235 40q-17 -13 -30 -32t-13 -41q0 -34 28.5 -56t111.5 -29zM601 413
q130 0 205.5 63t75.5 180q0 113 -75.5 178.5t-204.5 65.5q-124 0 -203 -67t-79 -180q0 -114 75.5 -177t205.5 -63zM334 1495h131q0 -62 34 -102.5t92 -40.5t92 40.5t34 102.5h131q0 -109 -73.5 -170.5t-183.5 -61.5t-183.5 61.5t-73.5 170.5z" />
    <glyph glyph-name="gbreve.ss01" horiz-adv-x="1316" 
d="M626 -21q-132 0 -250 60t-192.5 183.5t-74.5 314.5q0 137 43.5 239t117.5 169t166.5 100.5t189.5 33.5q100 0 188.5 -36t152.5 -107v126h217v-1038q0 -132 -45.5 -223t-122.5 -147t-171.5 -81t-192.5 -25q-95 0 -186.5 19.5t-166 62t-118.5 110.5t-44 165v11h217v-11
q0 -64 42 -105.5t111 -62t149 -20.5q86 0 156.5 28t112.5 95.5t42 183.5v97q-64 -71 -152.5 -106.5t-188.5 -35.5zM667 170q79 0 147 35t110.5 103.5t42.5 166.5v116q0 98 -42.5 165t-111 100.5t-146.5 33.5q-86 0 -161.5 -34.5t-122 -112t-46.5 -206.5q0 -130 46.5 -211
t122 -118.5t161.5 -37.5zM406 1495h131q0 -62 34 -102.5t92 -40.5t92 40.5t34 102.5h131q0 -109 -73.5 -170.5t-183.5 -61.5t-183.5 61.5t-73.5 170.5z" />
    <glyph glyph-name="gcaron" unicode="&#x1e7;" horiz-adv-x="1232" 
d="M839 85q134 -12 218.5 -65t84.5 -174q0 -137 -138 -219t-410 -82q-260 0 -395.5 75t-135.5 204q0 38 9 68.5t22 50.5l202 -30q-8 -10 -14.5 -30t-6.5 -47q0 -71 87 -101t241 -30q169 0 252.5 34.5t83.5 93.5t-51 74t-123 21l-403 33q-105 9 -171.5 63t-66.5 136
q0 63 38.5 115.5t77.5 76.5q-133 114 -133 300q0 123 62 219.5t170 152t248 55.5q125 0 221 -45.5t146 -111.5l18 140h197l-81 -415q-22 -116 -80.5 -209.5t-158 -147.5t-247.5 -54q-131 0 -235 40q-17 -13 -30 -32t-13 -41q0 -34 28.5 -56t111.5 -29zM601 413
q130 0 205.5 63t75.5 180q0 113 -75.5 178.5t-204.5 65.5q-124 0 -203 -67t-79 -180q0 -114 75.5 -177t205.5 -63zM295 1475h146l149 -175l148 175h148l-221 -253h-150z" />
    <glyph glyph-name="gcaron.ss01" horiz-adv-x="1316" 
d="M626 -21q-132 0 -250 60t-192.5 183.5t-74.5 314.5q0 137 43.5 239t117.5 169t166.5 100.5t189.5 33.5q100 0 188.5 -36t152.5 -107v126h217v-1038q0 -132 -45.5 -223t-122.5 -147t-171.5 -81t-192.5 -25q-95 0 -186.5 19.5t-166 62t-118.5 110.5t-44 165v11h217v-11
q0 -64 42 -105.5t111 -62t149 -20.5q86 0 156.5 28t112.5 95.5t42 183.5v97q-64 -71 -152.5 -106.5t-188.5 -35.5zM667 170q79 0 147 35t110.5 103.5t42.5 166.5v116q0 98 -42.5 165t-111 100.5t-146.5 33.5q-86 0 -161.5 -34.5t-122 -112t-46.5 -206.5q0 -130 46.5 -211
t122 -118.5t161.5 -37.5zM368 1475h146l149 -175l148 175h148l-221 -253h-150z" />
    <glyph glyph-name="gcircumflex" unicode="&#x11d;" horiz-adv-x="1232" 
d="M839 85q134 -12 218.5 -65t84.5 -174q0 -137 -138 -219t-410 -82q-260 0 -395.5 75t-135.5 204q0 38 9 68.5t22 50.5l202 -30q-8 -10 -14.5 -30t-6.5 -47q0 -71 87 -101t241 -30q169 0 252.5 34.5t83.5 93.5t-51 74t-123 21l-403 33q-105 9 -171.5 63t-66.5 136
q0 63 38.5 115.5t77.5 76.5q-133 114 -133 300q0 123 62 219.5t170 152t248 55.5q125 0 221 -45.5t146 -111.5l18 140h197l-81 -415q-22 -116 -80.5 -209.5t-158 -147.5t-247.5 -54q-131 0 -235 40q-17 -13 -30 -32t-13 -41q0 -34 28.5 -56t111.5 -29zM601 413
q130 0 205.5 63t75.5 180q0 113 -75.5 178.5t-204.5 65.5q-124 0 -203 -67t-79 -180q0 -114 75.5 -177t205.5 -63zM295 1222l220 253h150l221 -253h-148l-148 175l-149 -175h-146z" />
    <glyph glyph-name="gcircumflex.ss01" horiz-adv-x="1316" 
d="M626 -21q-132 0 -250 60t-192.5 183.5t-74.5 314.5q0 137 43.5 239t117.5 169t166.5 100.5t189.5 33.5q100 0 188.5 -36t152.5 -107v126h217v-1038q0 -132 -45.5 -223t-122.5 -147t-171.5 -81t-192.5 -25q-95 0 -186.5 19.5t-166 62t-118.5 110.5t-44 165v11h217v-11
q0 -64 42 -105.5t111 -62t149 -20.5q86 0 156.5 28t112.5 95.5t42 183.5v97q-64 -71 -152.5 -106.5t-188.5 -35.5zM667 170q79 0 147 35t110.5 103.5t42.5 166.5v116q0 98 -42.5 165t-111 100.5t-146.5 33.5q-86 0 -161.5 -34.5t-122 -112t-46.5 -206.5q0 -130 46.5 -211
t122 -118.5t161.5 -37.5zM368 1222l220 253h150l221 -253h-148l-148 175l-149 -175h-146z" />
    <glyph glyph-name="uni0123" unicode="&#x123;" horiz-adv-x="1232" 
d="M839 85q134 -12 218.5 -65t84.5 -174q0 -137 -138 -219t-410 -82q-260 0 -395.5 75t-135.5 204q0 38 9 68.5t22 50.5l202 -30q-8 -10 -14.5 -30t-6.5 -47q0 -71 87 -101t241 -30q169 0 252.5 34.5t83.5 93.5t-51 74t-123 21l-403 33q-105 9 -171.5 63t-66.5 136
q0 63 38.5 115.5t77.5 76.5q-133 114 -133 300q0 123 62 219.5t170 152t248 55.5q125 0 221 -45.5t146 -111.5l18 140h197l-81 -415q-22 -116 -80.5 -209.5t-158 -147.5t-247.5 -54q-131 0 -235 40q-17 -13 -30 -32t-13 -41q0 -34 28.5 -56t111.5 -29zM601 413
q130 0 205.5 63t75.5 180q0 113 -75.5 178.5t-204.5 65.5q-124 0 -203 -67t-79 -180q0 -114 75.5 -177t205.5 -63zM605.047 1368.51q41.625 0 66.5996 -24.0498t24.9746 -63.8242q0 -40.6992 -26.8242 -67.5234q-26.8252 -26.8252 -77.6992 -26.8252
q-52.7246 0 -80.0117 35.6123t-27.2871 89.2617q0 78.624 52.7246 130.886q52.7236 52.2617 112.849 76.3115l19.4248 -40.7002q-43.4746 -15.7246 -79.5498 -51.7988q-36.0742 -36.0742 -36.0742 -75.8496q2.77539 5.55078 16.6494 12.0254q13.875 6.47461 34.2246 6.47461
z" />
    <glyph glyph-name="uni0123.ss01" horiz-adv-x="1316" 
d="M626 -21q-132 0 -250 60t-192.5 183.5t-74.5 314.5q0 137 43.5 239t117.5 169t166.5 100.5t189.5 33.5q100 0 188.5 -36t152.5 -107v126h217v-1038q0 -132 -45.5 -223t-122.5 -147t-171.5 -81t-192.5 -25q-95 0 -186.5 19.5t-166 62t-118.5 110.5t-44 165v11h217v-11
q0 -64 42 -105.5t111 -62t149 -20.5q86 0 156.5 28t112.5 95.5t42 183.5v97q-64 -71 -152.5 -106.5t-188.5 -35.5zM667 170q79 0 147 35t110.5 103.5t42.5 166.5v116q0 98 -42.5 165t-111 100.5t-146.5 33.5q-86 0 -161.5 -34.5t-122 -112t-46.5 -206.5q0 -130 46.5 -211
t122 -118.5t161.5 -37.5zM678 1393q45 0 72 -26t27 -69q0 -44 -29 -73t-84 -29q-57 0 -86.5 38.5t-29.5 96.5q0 85 57 141.5t122 82.5l21 -44q-47 -17 -86 -56t-39 -82q3 6 18 13t37 7z" />
    <glyph glyph-name="gdotaccent" unicode="&#x121;" horiz-adv-x="1232" 
d="M839 85q134 -12 218.5 -65t84.5 -174q0 -137 -138 -219t-410 -82q-260 0 -395.5 75t-135.5 204q0 38 9 68.5t22 50.5l202 -30q-8 -10 -14.5 -30t-6.5 -47q0 -71 87 -101t241 -30q169 0 252.5 34.5t83.5 93.5t-51 74t-123 21l-403 33q-105 9 -171.5 63t-66.5 136
q0 63 38.5 115.5t77.5 76.5q-133 114 -133 300q0 123 62 219.5t170 152t248 55.5q125 0 221 -45.5t146 -111.5l18 140h197l-81 -415q-22 -116 -80.5 -209.5t-158 -147.5t-247.5 -54q-131 0 -235 40q-17 -13 -30 -32t-13 -41q0 -34 28.5 -56t111.5 -29zM601 413
q130 0 205.5 63t75.5 180q0 113 -75.5 178.5t-204.5 65.5q-124 0 -203 -67t-79 -180q0 -114 75.5 -177t205.5 -63zM592 1281q-55 0 -96 30.5t-41 83.5q0 54 41 84t96 30t95.5 -30t40.5 -84t-40.5 -84t-95.5 -30z" />
    <glyph glyph-name="gdotaccent.ss01" horiz-adv-x="1316" 
d="M626 -21q-132 0 -250 60t-192.5 183.5t-74.5 314.5q0 137 43.5 239t117.5 169t166.5 100.5t189.5 33.5q100 0 188.5 -36t152.5 -107v126h217v-1038q0 -132 -45.5 -223t-122.5 -147t-171.5 -81t-192.5 -25q-95 0 -186.5 19.5t-166 62t-118.5 110.5t-44 165v11h217v-11
q0 -64 42 -105.5t111 -62t149 -20.5q86 0 156.5 28t112.5 95.5t42 183.5v97q-64 -71 -152.5 -106.5t-188.5 -35.5zM667 170q79 0 147 35t110.5 103.5t42.5 166.5v116q0 98 -42.5 165t-111 100.5t-146.5 33.5q-86 0 -161.5 -34.5t-122 -112t-46.5 -206.5q0 -130 46.5 -211
t122 -118.5t161.5 -37.5zM664 1281q-55 0 -96 30.5t-41 83.5q0 54 41 84t96 30t95.5 -30t40.5 -84t-40.5 -84t-95.5 -30z" />
    <glyph glyph-name="uni1E21" unicode="&#x1e21;" horiz-adv-x="1232" 
d="M839 85q134 -12 218.5 -65t84.5 -174q0 -137 -138 -219t-410 -82q-260 0 -395.5 75t-135.5 204q0 38 9 68.5t22 50.5l202 -30q-8 -10 -14.5 -30t-6.5 -47q0 -71 87 -101t241 -30q169 0 252.5 34.5t83.5 93.5t-51 74t-123 21l-403 33q-105 9 -171.5 63t-66.5 136
q0 63 38.5 115.5t77.5 76.5q-133 114 -133 300q0 123 62 219.5t170 152t248 55.5q125 0 221 -45.5t146 -111.5l18 140h197l-81 -415q-22 -116 -80.5 -209.5t-158 -147.5t-247.5 -54q-131 0 -235 40q-17 -13 -30 -32t-13 -41q0 -34 28.5 -56t111.5 -29zM601 413
q130 0 205.5 63t75.5 180q0 113 -75.5 178.5t-204.5 65.5q-124 0 -203 -67t-79 -180q0 -114 75.5 -177t205.5 -63zM314 1308v94h553v-94h-553z" />
    <glyph glyph-name="uni1E21.ss01" horiz-adv-x="1316" 
d="M626 -21q-132 0 -250 60t-192.5 183.5t-74.5 314.5q0 137 43.5 239t117.5 169t166.5 100.5t189.5 33.5q100 0 188.5 -36t152.5 -107v126h217v-1038q0 -132 -45.5 -223t-122.5 -147t-171.5 -81t-192.5 -25q-95 0 -186.5 19.5t-166 62t-118.5 110.5t-44 165v11h217v-11
q0 -64 42 -105.5t111 -62t149 -20.5q86 0 156.5 28t112.5 95.5t42 183.5v97q-64 -71 -152.5 -106.5t-188.5 -35.5zM667 170q79 0 147 35t110.5 103.5t42.5 166.5v116q0 98 -42.5 165t-111 100.5t-146.5 33.5q-86 0 -161.5 -34.5t-122 -112t-46.5 -206.5q0 -130 46.5 -211
t122 -118.5t161.5 -37.5zM387 1308v94h553v-94h-553z" />
    <glyph glyph-name="uni01E5" unicode="&#x1e5;" horiz-adv-x="1316" 
d="M626 -21q-132 0 -250 60t-192.5 183.5t-74.5 314.5q0 137 43.5 239t117.5 169t166.5 100.5t189.5 33.5q100 0 188.5 -36t152.5 -107v126h217v-1038q0 -132 -45.5 -223t-122.5 -147t-171.5 -81t-192.5 -25q-95 0 -186.5 19.5t-166 62t-118.5 110.5t-44 165v11h217v-11
q0 -64 42 -105.5t111 -62t149 -20.5q86 0 156.5 28t112.5 95.5t42 183.5v97q-64 -71 -152.5 -106.5t-188.5 -35.5zM667 170q79 0 147 35t110.5 103.5t42.5 166.5v116q0 98 -42.5 165t-111 100.5t-146.5 33.5q-86 0 -161.5 -34.5t-122 -112t-46.5 -206.5q0 -130 46.5 -211
t122 -118.5t161.5 -37.5zM592 480v103h707v-103h-707z" />
    <glyph glyph-name="h" unicode="h" horiz-adv-x="1248" 
d="M142 0v1563h217v-633q61 69 151.5 109t200.5 40q192 0 298.5 -114.5t106.5 -318.5v-646h-217v592q0 143 -58.5 217t-191.5 74q-134 0 -212 -76t-78 -194v-613h-217z" />
    <glyph glyph-name="hbar" unicode="&#x127;" horiz-adv-x="1254" 
d="M148 0v1264h-129v140h129v159h217v-159h333v-140h-333v-334q61 69 151.5 109t200.5 40q192 0 298.5 -114.5t106.5 -318.5v-646h-217v592q0 143 -58.5 217t-191.5 74q-134 0 -212 -76t-78 -194v-613h-217z" />
    <glyph glyph-name="uni1E2B" unicode="&#x1e2b;" horiz-adv-x="1248" 
d="M142 0v1563h217v-633q61 69 151.5 109t200.5 40q192 0 298.5 -114.5t106.5 -318.5v-646h-217v592q0 143 -58.5 217t-191.5 74q-134 0 -212 -76t-78 -194v-613h-217zM356 -123h132q0 -62 34 -95.5t92 -33.5t91.5 33.5t33.5 95.5h131q0 -108 -73.5 -162.5t-182.5 -54.5
q-110 0 -184 54.5t-74 162.5z" />
    <glyph glyph-name="hcircumflex" unicode="&#x125;" horiz-adv-x="1248" 
d="M142 0v1563h217v-633q61 69 151.5 109t200.5 40q192 0 298.5 -114.5t106.5 -318.5v-646h-217v592q0 143 -58.5 217t-191.5 74q-134 0 -212 -76t-78 -194v-613h-217zM-42 1713l220 253h150l221 -253h-148l-148 175l-149 -175h-146z" />
    <glyph glyph-name="uni1E25" unicode="&#x1e25;" horiz-adv-x="1248" 
d="M142 0v1563h217v-633q61 69 151.5 109t200.5 40q192 0 298.5 -114.5t106.5 -318.5v-646h-217v592q0 143 -58.5 217t-191.5 74q-134 0 -212 -76t-78 -194v-613h-217zM617 -364q-55 0 -96 30.5t-41 83.5t41 83t96 30q54 0 95 -30t41 -83q0 -54 -41 -84t-95 -30z" />
    <glyph glyph-name="i" unicode="i" horiz-adv-x="505" 
d="M253 1282q-56 0 -96.5 30.5t-40.5 84.5q0 53 40.5 83.5t96.5 30.5q55 0 95.5 -30.5t40.5 -83.5q0 -55 -40.5 -85t-95.5 -30zM145 0v1062h214v-1062h-214z" />
    <glyph glyph-name="dotlessi" unicode="&#x131;" horiz-adv-x="504" 
d="M145 0v1062h214v-1062h-214z" />
    <glyph glyph-name="iacute" unicode="&#xed;" horiz-adv-x="504" 
d="M145 0v1062h214v-1062h-214zM118 1222l239 253h184l-263 -253h-160z" />
    <glyph glyph-name="ibreve" unicode="&#x12d;" horiz-adv-x="504" 
d="M145 0v1062h214v-1062h-214zM-5 1495h131q0 -62 34 -102.5t92 -40.5t92 40.5t34 102.5h131q0 -109 -73.5 -170.5t-183.5 -61.5t-183.5 61.5t-73.5 170.5z" />
    <glyph glyph-name="uni01D0" unicode="&#x1d0;" horiz-adv-x="504" 
d="M145 0v1062h214v-1062h-214zM-43 1475h146l149 -175l148 175h148l-221 -253h-150z" />
    <glyph glyph-name="icircumflex" unicode="&#xee;" horiz-adv-x="504" 
d="M145 0v1062h214v-1062h-214zM-43 1222l220 253h150l221 -253h-148l-148 175l-149 -175h-146z" />
    <glyph glyph-name="uni0209" unicode="&#x209;" horiz-adv-x="504" 
d="M145 0v1062h214v-1062h-214zM489 1222h-124l-183 253h151zM174 1222h-125l-198 253h152z" />
    <glyph glyph-name="idieresis" unicode="&#xef;" horiz-adv-x="504" 
d="M145 0v1062h214v-1062h-214zM98 1279q-51 0 -89 28.5t-38 77.5q0 50 38 78t89 28q50 0 88 -28t38 -78t-38 -78t-88 -28zM405 1279q-51 0 -88.5 28.5t-37.5 77.5q0 50 37.5 78t88.5 28t89 -28t38 -78t-38 -78t-89 -28z" />
    <glyph glyph-name="uni1E2F" unicode="&#x1e2f;" horiz-adv-x="504" 
d="M145 0v1062h214v-1062h-214zM98 1279q-51 0 -89 28.5t-38 77.5q0 50 38 78t89 28q50 0 88 -28t38 -78t-38 -78t-88 -28zM405 1279q-51 0 -88.5 28.5t-37.5 77.5q0 50 37.5 78t88.5 28t89 -28t38 -78t-38 -78t-89 -28zM118 1657l239 253h184l-263 -253h-160z" />
    <glyph glyph-name="i.loclTRK" horiz-adv-x="504" 
d="M145 0v1062h214v-1062h-214zM253 1281q-55 0 -96 30.5t-41 83.5q0 54 41 84t96 30t95.5 -30t40.5 -84t-40.5 -84t-95.5 -30z" />
    <glyph glyph-name="uni1ECB" unicode="&#x1ecb;" horiz-adv-x="505" 
d="M253 1282q-56 0 -96.5 30.5t-40.5 84.5q0 53 40.5 83.5t96.5 30.5q55 0 95.5 -30.5t40.5 -83.5q0 -55 -40.5 -85t-95.5 -30zM145 0v1062h214v-1062h-214zM253 -364q-55 0 -96 30.5t-41 83.5t41 83t96 30q54 0 95 -30t41 -83q0 -54 -41 -84t-95 -30z" />
    <glyph glyph-name="igrave" unicode="&#xec;" horiz-adv-x="504" 
d="M145 0v1062h214v-1062h-214zM381 1220h-161l-263 253h184z" />
    <glyph glyph-name="uni1EC9" unicode="&#x1ec9;" horiz-adv-x="504" 
d="M145 0v1062h214v-1062h-214zM54 1502q109 0 195.5 -8.5t136.5 -34.5t50 -81q0 -71 -76 -102t-177 -31l-25 63q34 1 73 7t66 19t27 36q0 38 -72.5 47.5t-197.5 9.5v75z" />
    <glyph glyph-name="uni020B" unicode="&#x20b;" horiz-adv-x="504" 
d="M145 0v1062h214v-1062h-214zM-5 1270q0 108 73.5 162.5t183.5 54.5t183.5 -54.5t73.5 -162.5h-131q0 61 -34 94.5t-92 33.5q-57 0 -91 -33.5t-34 -94.5h-132z" />
    <glyph glyph-name="imacron" unicode="&#x12b;" horiz-adv-x="504" 
d="M145 0v1062h214v-1062h-214zM54 1308v94h397v-94h-397z" />
    <glyph glyph-name="iogonek" unicode="&#x12f;" horiz-adv-x="504" 
d="M145 0v1062h214v-1062h-214zM360 -322v-109q-20 -3 -44.5 -5t-48.5 -2q-87 0 -149 37t-62 121q0 51 30.5 105t74.5 100t83 75h116q-34 -30 -76 -75t-73 -92.5t-31 -84.5q0 -42 28 -60t72 -18q19 0 41 2.5t39 5.5zM253 1281q-55 0 -96 30.5t-41 83.5q0 54 41 84t96 30
t95.5 -30t40.5 -84t-40.5 -84t-95.5 -30z" />
    <glyph glyph-name="itilde" unicode="&#x129;" horiz-adv-x="504" 
d="M145 0v1062h214v-1062h-214zM554 1453q-1 -37 -19 -80t-56 -73t-100 -30q-47 0 -81.5 19.5t-58.5 38.5q-22 17 -45.5 31t-54.5 14q-39 0 -54 -24.5t-17 -53.5h-119q2 39 22.5 82t61 73t101.5 30q47 0 80 -18.5t56 -36.5q23 -19 47.5 -34t51.5 -15q38 0 51.5 23t14.5 54
h119z" />
    <glyph glyph-name="j" unicode="j" horiz-adv-x="521" 
d="M268 1282q-55 0 -96 30.5t-41 84.5q0 53 41 83.5t96 30.5t96 -30.5t41 -83.5q0 -54 -41 -84.5t-96 -30.5zM-26 -450q-58 0 -94 7v163q16 -4 41.5 -7t52.5 -3q83 0 122 31.5t49.5 78t10.5 92.5v1150h217v-1157q0 -66 -13.5 -129t-54 -114t-120 -81.5t-211.5 -30.5z" />
    <glyph glyph-name="uni0237" unicode="&#x237;" horiz-adv-x="521" 
d="M-26 -450q-58 0 -94 7v163q16 -4 41.5 -7t52.5 -3q83 0 122 31.5t49.5 78t10.5 92.5v1150h217v-1157q0 -66 -13.5 -129t-54 -114t-120 -81.5t-211.5 -30.5z" />
    <glyph glyph-name="jcircumflex" unicode="&#x135;" horiz-adv-x="521" 
d="M-26 -450q-58 0 -94 7v163q16 -4 41.5 -7t52.5 -3q83 0 122 31.5t49.5 78t10.5 92.5v1150h217v-1157q0 -66 -13.5 -129t-54 -114t-120 -81.5t-211.5 -30.5zM-29 1222l220 253h150l221 -253h-148l-148 175l-149 -175h-146z" />
    <glyph glyph-name="k" unicode="k" horiz-adv-x="1067" 
d="M142 0v1563h206v-866l421 365h273l-441 -390l441 -672h-231l-348 549l-115 -101v-448h-206z" />
    <glyph glyph-name="uni01E9" unicode="&#x1e9;" horiz-adv-x="1067" 
d="M142 0v1563h206v-866l421 365h273l-441 -390l441 -672h-231l-348 549l-115 -101v-448h-206zM-52 1828h151l149 -129l148 129h153l-223 -188h-156z" />
    <glyph glyph-name="uni0137" unicode="&#x137;" horiz-adv-x="1067" 
d="M142 0v1563h206v-866l421 365h273l-441 -390l441 -672h-231l-348 549l-115 -101v-448h-206zM560 -251q-38 0 -62.5 22t-24.5 58q0 42 32 63.5t72 21.5q37 0 72.5 -24t35.5 -82q0 -69 -27 -119t-66.5 -82.5t-77.5 -50.5l-16 40q43 18 85.5 64t42.5 116q-6 -12 -25.5 -19.5
t-40.5 -7.5z" />
    <glyph glyph-name="kgreenlandic" unicode="&#x138;" horiz-adv-x="963" 
d="M710 0l-278 419l-84 -109v-310h-206v1062h206v-483l351 483h226l-360 -489l377 -573h-232z" />
    <glyph glyph-name="l" unicode="l" horiz-adv-x="519" 
d="M371 1563v-1563h-214v1563h214z" />
    <glyph glyph-name="l.ss01" horiz-adv-x="566" 
d="M427 -16q-47 0 -97 8t-92.5 35t-69 82t-26.5 148v1306h217v-1260q0 -88 25 -114.5t70 -26.5q27 0 52 4.5t40 9.5v-176q-20 -7 -48.5 -11.5t-70.5 -4.5z" />
    <glyph glyph-name="lacute" unicode="&#x13a;" horiz-adv-x="519" 
d="M371 1563v-1563h-214v1563h214zM123 1641l279 190h194l-297 -190h-176z" />
    <glyph glyph-name="lacute.ss01" horiz-adv-x="566" 
d="M427 -16q-47 0 -97 8t-92.5 35t-69 82t-26.5 148v1306h217v-1260q0 -88 25 -114.5t70 -26.5q27 0 52 4.5t40 9.5v-176q-20 -7 -48.5 -11.5t-70.5 -4.5zM113 1723l239 253h184l-263 -253h-160z" />
    <glyph glyph-name="lcaron" unicode="&#x13e;" horiz-adv-x="626" 
d="M371 1563v-1563h-214v1563h214zM626 1563q0 -79 -9 -161t-19.5 -146t-16.5 -89h-106q6 26 12.5 88.5t11.5 143.5t5 164h122z" />
    <glyph glyph-name="lcaron.ss01" horiz-adv-x="667" 
d="M442 -16q-47 0 -97 8t-92.5 35t-69 82t-26.5 148v1306h217v-1260q0 -88 25 -114.5t70 -26.5q27 0 52 4.5t40 9.5v-176q-20 -7 -48.5 -11.5t-70.5 -4.5zM667 1563q0 -79 -9 -161t-19.5 -146t-16.5 -89h-106q6 26 12.5 88.5t11.5 143.5t5 164h122z" />
    <glyph glyph-name="uni013C" unicode="&#x13c;" horiz-adv-x="519" 
d="M371 1563v-1563h-214v1563h214zM242 -251q-38 0 -62.5 22t-24.5 58q0 42 32 63.5t72 21.5q37 0 72.5 -24t35.5 -82q0 -69 -27 -119t-66.5 -82.5t-77.5 -50.5l-16 40q43 18 85.5 64t42.5 116q-6 -12 -25.5 -19.5t-40.5 -7.5z" />
    <glyph glyph-name="uni013C.ss01" horiz-adv-x="566" 
d="M427 -16q-47 0 -97 8t-92.5 35t-69 82t-26.5 148v1306h217v-1260q0 -88 25 -114.5t70 -26.5q27 0 52 4.5t40 9.5v-176q-20 -7 -48.5 -11.5t-70.5 -4.5zM325 -261q-38 0 -62.5 22t-24.5 58q0 42 32 63.5t72 21.5q37 0 72.5 -24t35.5 -82q0 -69 -27 -119t-66.5 -82.5
t-77.5 -50.5l-16 40q43 18 85.5 64t42.5 116q-6 -12 -25.5 -19.5t-40.5 -7.5z" />
    <glyph glyph-name="ldot" unicode="&#x140;" horiz-adv-x="726" 
d="M356 1563v-1563h-214v1563h214zM593 677q-56 0 -94.5 38.5t-38.5 93.5t38.5 93.5t94.5 38.5q54 0 93 -38.5t39 -93.5t-39 -93.5t-93 -38.5z" />
    <glyph glyph-name="ldot.ss01" horiz-adv-x="743" 
d="M427 -16q-47 0 -97 8t-92.5 35t-69 82t-26.5 148v1306h217v-1260q0 -88 25 -114.5t70 -26.5q27 0 52 4.5t40 9.5v-176q-20 -7 -48.5 -11.5t-70.5 -4.5zM611 677q-56 0 -94.5 38.5t-38.5 93.5t38.5 93.5t94.5 38.5q54 0 93 -38.5t39 -93.5t-39 -93.5t-93 -38.5z" />
    <glyph glyph-name="uni1E37" unicode="&#x1e37;" horiz-adv-x="519" 
d="M371 1563v-1563h-214v1563h214zM263 -364q-55 0 -96 30.5t-41 83.5t41 83t96 30q54 0 95 -30t41 -83q0 -54 -41 -84t-95 -30z" />
    <glyph glyph-name="uni1E37.ss01" horiz-adv-x="566" 
d="M427 -16q-47 0 -97 8t-92.5 35t-69 82t-26.5 148v1306h217v-1260q0 -88 25 -114.5t70 -26.5q27 0 52 4.5t40 9.5v-176q-20 -7 -48.5 -11.5t-70.5 -4.5zM346 -374q-55 0 -96 30.5t-41 83.5t41 83t96 30q54 0 95 -30t41 -83q0 -54 -41 -84t-95 -30z" />
    <glyph glyph-name="uni01C9" unicode="&#x1c9;" horiz-adv-x="1088" 
d="M427 -16q-47 0 -97 8t-92.5 35t-69 82t-26.5 148v1306h217v-1260q0 -88 25 -114.5t70 -26.5q27 0 52 4.5t40 9.5v-176q-20 -7 -48.5 -11.5t-70.5 -4.5zM834 1282q-55 0 -96 30.5t-41 84.5q0 53 41 83.5t96 30.5t96 -30.5t41 -83.5q0 -54 -41 -84.5t-96 -30.5zM540 -450
q-58 0 -94 7v163q16 -4 41.5 -7t52.5 -3q83 0 122 31.5t49.5 78t10.5 92.5v1150h217v-1157q0 -66 -13.5 -129t-54 -114t-120 -81.5t-211.5 -30.5z" />
    <glyph glyph-name="uni1E3B" unicode="&#x1e3b;" horiz-adv-x="519" 
d="M371 1563v-1563h-214v1563h214zM1 -274v95h519v-95h-519z" />
    <glyph glyph-name="uni1E3B.ss01" horiz-adv-x="566" 
d="M427 -16q-47 0 -97 8t-92.5 35t-69 82t-26.5 148v1306h217v-1260q0 -88 25 -114.5t70 -26.5q27 0 52 4.5t40 9.5v-176q-20 -7 -48.5 -11.5t-70.5 -4.5zM84 -284v95h519v-95h-519z" />
    <glyph glyph-name="lslash" unicode="&#x142;" horiz-adv-x="506" 
d="M-49 790l206 115v658h214v-539l89 50l60 -116l-149 -83v-875h-214v756l-145 -82z" />
    <glyph glyph-name="lslash.ss01" horiz-adv-x="586" 
d="M427 -16q-47 0 -97 8t-92.5 35t-69 82t-26.5 148v486l-123 -69l-60 116l183 103v670h217v-549l108 60l60 -116l-168 -94v-561q0 -88 25 -114.5t70 -26.5q27 0 52 4.5t40 9.5v-176q-20 -7 -48.5 -11.5t-70.5 -4.5z" />
    <glyph glyph-name="m" unicode="m" horiz-adv-x="1802" 
d="M142 0v1062h217v-138q53 71 132 113t179 42q127 0 203 -53.5t110 -143.5q50 88 136 142.5t202 54.5q180 0 264 -105.5t84 -272.5v-701h-216v634q0 54 -10.5 112t-52 97.5t-134.5 39.5q-92 0 -145 -45.5t-75 -113.5t-22 -136v-588h-215v631q0 53 -11 111.5t-51.5 99.5
t-131.5 41t-144.5 -46t-77.5 -116.5t-24 -144.5v-576h-217z" />
    <glyph glyph-name="uni1E43" unicode="&#x1e43;" horiz-adv-x="1802" 
d="M142 0v1062h217v-138q53 71 132 113t179 42q127 0 203 -53.5t110 -143.5q50 88 136 142.5t202 54.5q180 0 264 -105.5t84 -272.5v-701h-216v634q0 54 -10.5 112t-52 97.5t-134.5 39.5q-92 0 -145 -45.5t-75 -113.5t-22 -136v-588h-215v631q0 53 -11 111.5t-51.5 99.5
t-131.5 41t-144.5 -46t-77.5 -116.5t-24 -144.5v-576h-217zM917 -364q-55 0 -96 30.5t-41 83.5t41 83t96 30q54 0 95 -30t41 -83q0 -54 -41 -84t-95 -30z" />
    <glyph glyph-name="n" unicode="n" horiz-adv-x="1247" 
d="M142 0v1062h217v-158q62 81 155 128t201 47q188 0 294 -107.5t106 -292.5v-679h-217v619q0 116 -56 190t-194 74q-81 0 -146.5 -40t-104 -109t-38.5 -155v-579h-217z" />
    <glyph glyph-name="nacute" unicode="&#x144;" horiz-adv-x="1247" 
d="M142 0v1062h217v-158q62 81 155 128t201 47q188 0 294 -107.5t106 -292.5v-679h-217v619q0 116 -56 190t-194 74q-81 0 -146.5 -40t-104 -109t-38.5 -155v-579h-217zM511 1222l239 253h184l-263 -253h-160z" />
    <glyph glyph-name="ncaron" unicode="&#x148;" horiz-adv-x="1247" 
d="M142 0v1062h217v-158q62 81 155 128t201 47q188 0 294 -107.5t106 -292.5v-679h-217v619q0 116 -56 190t-194 74q-81 0 -146.5 -40t-104 -109t-38.5 -155v-579h-217zM349 1475h146l149 -175l148 175h148l-221 -253h-150z" />
    <glyph glyph-name="uni0146" unicode="&#x146;" horiz-adv-x="1247" 
d="M142 0v1062h217v-158q62 81 155 128t201 47q188 0 294 -107.5t106 -292.5v-679h-217v619q0 116 -56 190t-194 74q-81 0 -146.5 -40t-104 -109t-38.5 -155v-579h-217zM602 -251q-38 0 -62.5 22t-24.5 58q0 42 32 63.5t72 21.5q37 0 72.5 -24t35.5 -82q0 -69 -27 -119
t-66.5 -82.5t-77.5 -50.5l-16 40q43 18 85.5 64t42.5 116q-6 -12 -25.5 -19.5t-40.5 -7.5z" />
    <glyph glyph-name="uni1E45" unicode="&#x1e45;" horiz-adv-x="1247" 
d="M142 0v1062h217v-158q62 81 155 128t201 47q188 0 294 -107.5t106 -292.5v-679h-217v619q0 116 -56 190t-194 74q-81 0 -146.5 -40t-104 -109t-38.5 -155v-579h-217zM646 1281q-55 0 -96 30.5t-41 83.5q0 54 41 84t96 30t95.5 -30t40.5 -84t-40.5 -84t-95.5 -30z" />
    <glyph glyph-name="uni1E47" unicode="&#x1e47;" horiz-adv-x="1247" 
d="M142 0v1062h217v-158q62 81 155 128t201 47q188 0 294 -107.5t106 -292.5v-679h-217v619q0 116 -56 190t-194 74q-81 0 -146.5 -40t-104 -109t-38.5 -155v-579h-217zM623 -364q-55 0 -96 30.5t-41 83.5t41 83t96 30q54 0 95 -30t41 -83q0 -54 -41 -84t-95 -30z" />
    <glyph glyph-name="eng" unicode="&#x14b;" horiz-adv-x="1231" 
d="M142 0v1062h217v-158q62 81 155 128t201 47q188 0 286 -107.5t98 -292.5v-736q0 -126 -44 -215.5t-145 -137t-272 -47.5v158q86 0 140 33.5t79 87.5t25 116v681q0 116 -48 190t-186 74q-81 0 -146.5 -40t-104 -109t-38.5 -155v-579h-217z" />
    <glyph glyph-name="uni0272" unicode="&#x272;" horiz-adv-x="1185" 
d="M-120 -461v157q80 0 127.5 36.5t68.5 93.5t21 118v1118h216v-157q62 80 155 127t201 47q188 0 285.5 -107.5t97.5 -292.5v-679h-216v619q0 116 -48 190t-186 74q-78 0 -141 -36.5t-102.5 -100t-45.5 -143.5v-659q0 -72 -13 -143.5t-56 -131t-130 -95t-234 -35.5z" />
    <glyph glyph-name="uni01CC" unicode="&#x1cc;" horiz-adv-x="1769" 
d="M142 0v1062h217v-158q62 81 155 128t201 47q188 0 294 -107.5t106 -292.5v-679h-217v619q0 116 -56 190t-194 74q-81 0 -146.5 -40t-104 -109t-38.5 -155v-579h-217zM1515 1282q-55 0 -96 30.5t-41 84.5q0 53 41 83.5t96 30.5t96 -30.5t41 -83.5q0 -54 -41 -84.5
t-96 -30.5zM1221 -450q-58 0 -94 7v163q16 -4 41.5 -7t52.5 -3q83 0 122 31.5t49.5 78t10.5 92.5v1150h217v-1157q0 -66 -13.5 -129t-54 -114t-120 -81.5t-211.5 -30.5z" />
    <glyph glyph-name="uni1E49" unicode="&#x1e49;" horiz-adv-x="1247" 
d="M142 0v1062h217v-158q62 81 155 128t201 47q188 0 294 -107.5t106 -292.5v-679h-217v619q0 116 -56 190t-194 74q-81 0 -146.5 -40t-104 -109t-38.5 -155v-579h-217zM361 -274v95h519v-95h-519z" />
    <glyph glyph-name="ntilde" unicode="&#xf1;" horiz-adv-x="1247" 
d="M142 0v1062h217v-158q62 81 155 128t201 47q188 0 294 -107.5t106 -292.5v-679h-217v619q0 116 -56 190t-194 74q-81 0 -146.5 -40t-104 -109t-38.5 -155v-579h-217zM947 1453q-1 -37 -19 -80t-56 -73t-100 -30q-47 0 -81.5 19.5t-58.5 38.5q-22 17 -45.5 31t-54.5 14
q-39 0 -54 -24.5t-17 -53.5h-119q2 39 22.5 82t61 73t101.5 30q47 0 80 -18.5t56 -36.5q23 -19 47.5 -34t51.5 -15q38 0 51.5 23t14.5 54h119z" />
    <glyph glyph-name="o" unicode="o" horiz-adv-x="1310" 
d="M655 -20q-164 0 -289.5 71t-196 195.5t-70.5 285.5q0 160 70.5 283.5t196 193t289.5 69.5t289.5 -69.5t196 -193t70.5 -283.5q0 -161 -70.5 -285.5t-196 -195.5t-289.5 -71zM655 166q150 0 244 100t94 266q0 165 -94 262.5t-244 97.5t-244 -97.5t-94 -262.5
q0 -166 94 -266t244 -100z" />
    <glyph glyph-name="oacute" unicode="&#xf3;" horiz-adv-x="1310" 
d="M655 -20q-164 0 -289.5 71t-196 195.5t-70.5 285.5q0 160 70.5 283.5t196 193t289.5 69.5t289.5 -69.5t196 -193t70.5 -283.5q0 -161 -70.5 -285.5t-196 -195.5t-289.5 -71zM655 166q150 0 244 100t94 266q0 165 -94 262.5t-244 97.5t-244 -97.5t-94 -262.5
q0 -166 94 -266t244 -100zM522 1222l239 253h184l-263 -253h-160z" />
    <glyph glyph-name="obreve" unicode="&#x14f;" horiz-adv-x="1310" 
d="M655 -20q-164 0 -289.5 71t-196 195.5t-70.5 285.5q0 160 70.5 283.5t196 193t289.5 69.5t289.5 -69.5t196 -193t70.5 -283.5q0 -161 -70.5 -285.5t-196 -195.5t-289.5 -71zM655 166q150 0 244 100t94 266q0 165 -94 262.5t-244 97.5t-244 -97.5t-94 -262.5
q0 -166 94 -266t244 -100zM399 1495h131q0 -62 34 -102.5t92 -40.5t92 40.5t34 102.5h131q0 -109 -73.5 -170.5t-183.5 -61.5t-183.5 61.5t-73.5 170.5z" />
    <glyph glyph-name="uni01D2" unicode="&#x1d2;" horiz-adv-x="1310" 
d="M655 -20q-164 0 -289.5 71t-196 195.5t-70.5 285.5q0 160 70.5 283.5t196 193t289.5 69.5t289.5 -69.5t196 -193t70.5 -283.5q0 -161 -70.5 -285.5t-196 -195.5t-289.5 -71zM655 166q150 0 244 100t94 266q0 165 -94 262.5t-244 97.5t-244 -97.5t-94 -262.5
q0 -166 94 -266t244 -100zM360 1475h146l149 -175l148 175h148l-221 -253h-150z" />
    <glyph glyph-name="ocircumflex" unicode="&#xf4;" horiz-adv-x="1310" 
d="M655 -20q-164 0 -289.5 71t-196 195.5t-70.5 285.5q0 160 70.5 283.5t196 193t289.5 69.5t289.5 -69.5t196 -193t70.5 -283.5q0 -161 -70.5 -285.5t-196 -195.5t-289.5 -71zM655 166q150 0 244 100t94 266q0 165 -94 262.5t-244 97.5t-244 -97.5t-94 -262.5
q0 -166 94 -266t244 -100zM360 1222l220 253h150l221 -253h-148l-148 175l-149 -175h-146z" />
    <glyph glyph-name="uni1ED1" unicode="&#x1ed1;" horiz-adv-x="1310" 
d="M655 -20q-164 0 -289.5 71t-196 195.5t-70.5 285.5q0 160 70.5 283.5t196 193t289.5 69.5t289.5 -69.5t196 -193t70.5 -283.5q0 -161 -70.5 -285.5t-196 -195.5t-289.5 -71zM655 166q150 0 244 100t94 266q0 165 -94 262.5t-244 97.5t-244 -97.5t-94 -262.5
q0 -166 94 -266t244 -100zM799 1434l190 253h155l-211 -253h-134zM360 1222l220 253h150l221 -253h-148l-148 175l-149 -175h-146z" />
    <glyph glyph-name="uni1ED9" unicode="&#x1ed9;" horiz-adv-x="1310" 
d="M655 -20q-164 0 -289.5 71t-196 195.5t-70.5 285.5q0 160 70.5 283.5t196 193t289.5 69.5t289.5 -69.5t196 -193t70.5 -283.5q0 -161 -70.5 -285.5t-196 -195.5t-289.5 -71zM655 166q150 0 244 100t94 266q0 165 -94 262.5t-244 97.5t-244 -97.5t-94 -262.5
q0 -166 94 -266t244 -100zM658 -364q-55 0 -96 30.5t-41 83.5t41 83t96 30q54 0 95 -30t41 -83q0 -54 -41 -84t-95 -30zM360 1222l220 253h150l221 -253h-148l-148 175l-149 -175h-146z" />
    <glyph glyph-name="uni1ED3" unicode="&#x1ed3;" horiz-adv-x="1310" 
d="M655 -20q-164 0 -289.5 71t-196 195.5t-70.5 285.5q0 160 70.5 283.5t196 193t289.5 69.5t289.5 -69.5t196 -193t70.5 -283.5q0 -161 -70.5 -285.5t-196 -195.5t-289.5 -71zM655 166q150 0 244 100t94 266q0 165 -94 262.5t-244 97.5t-244 -97.5t-94 -262.5
q0 -166 94 -266t244 -100zM1014 1434h-134l-211 253h155zM361 1222l220 253h150l221 -253h-148l-148 175l-149 -175h-146z" />
    <glyph glyph-name="uni1ED5" unicode="&#x1ed5;" horiz-adv-x="1310" 
d="M655 -20q-164 0 -289.5 71t-196 195.5t-70.5 285.5q0 160 70.5 283.5t196 193t289.5 69.5t289.5 -69.5t196 -193t70.5 -283.5q0 -161 -70.5 -285.5t-196 -195.5t-289.5 -71zM655 166q150 0 244 100t94 266q0 165 -94 262.5t-244 97.5t-244 -97.5t-94 -262.5
q0 -166 94 -266t244 -100zM867 1435l-24 58q33 2 69 7t61.5 17t25.5 34q0 35 -68 44t-184 9v69q102 0 181.5 -7.5t126 -32t46.5 -74.5q0 -66 -70 -95t-164 -29zM360 1222l220 253h150l221 -253h-148l-148 175l-149 -175h-146z" />
    <glyph glyph-name="uni1ED7" unicode="&#x1ed7;" horiz-adv-x="1310" 
d="M655 -20q-164 0 -289.5 71t-196 195.5t-70.5 285.5q0 160 70.5 283.5t196 193t289.5 69.5t289.5 -69.5t196 -193t70.5 -283.5q0 -161 -70.5 -285.5t-196 -195.5t-289.5 -71zM655 166q150 0 244 100t94 266q0 165 -94 262.5t-244 97.5t-244 -97.5t-94 -262.5
q0 -166 94 -266t244 -100zM784 1539q-51 0 -83.5 17.5t-56.5 38.5q-20 18 -42.5 32.5t-52.5 14.5q-39 0 -56.5 -24.5t-19.5 -53.5h-119q2 39 22.5 82t61 73t101.5 30q47 0 79.5 -18.5t55.5 -36.5q24 -19 48 -34t52 -15q38 0 51 23t15 54h119q-2 -37 -19.5 -80t-55.5 -73
t-100 -30zM360 1222l220 253h150l221 -253h-148l-148 175l-149 -175h-146z" />
    <glyph glyph-name="uni020D" unicode="&#x20d;" horiz-adv-x="1310" 
d="M655 -20q-164 0 -289.5 71t-196 195.5t-70.5 285.5q0 160 70.5 283.5t196 193t289.5 69.5t289.5 -69.5t196 -193t70.5 -283.5q0 -161 -70.5 -285.5t-196 -195.5t-289.5 -71zM655 166q150 0 244 100t94 266q0 165 -94 262.5t-244 97.5t-244 -97.5t-94 -262.5
q0 -166 94 -266t244 -100zM892 1222h-124l-183 253h151zM577 1222h-125l-198 253h152z" />
    <glyph glyph-name="odieresis" unicode="&#xf6;" horiz-adv-x="1310" 
d="M655 -20q-164 0 -289.5 71t-196 195.5t-70.5 285.5q0 160 70.5 283.5t196 193t289.5 69.5t289.5 -69.5t196 -193t70.5 -283.5q0 -161 -70.5 -285.5t-196 -195.5t-289.5 -71zM655 166q150 0 244 100t94 266q0 165 -94 262.5t-244 97.5t-244 -97.5t-94 -262.5
q0 -166 94 -266t244 -100zM445 1279q-51 0 -89 28.5t-38 77.5q0 50 38 78t89 28q50 0 88 -28t38 -78t-38 -78t-88 -28zM865 1279q-51 0 -88.5 28.5t-37.5 77.5q0 50 37.5 78t88.5 28t89 -28t38 -78t-38 -78t-89 -28z" />
    <glyph glyph-name="uni022B" unicode="&#x22b;" horiz-adv-x="1310" 
d="M655 -20q-164 0 -289.5 71t-196 195.5t-70.5 285.5q0 160 70.5 283.5t196 193t289.5 69.5t289.5 -69.5t196 -193t70.5 -283.5q0 -161 -70.5 -285.5t-196 -195.5t-289.5 -71zM655 166q150 0 244 100t94 266q0 165 -94 262.5t-244 97.5t-244 -97.5t-94 -262.5
q0 -166 94 -266t244 -100zM445 1279q-51 0 -89 28.5t-38 77.5q0 50 38 78t89 28q50 0 88 -28t38 -78t-38 -78t-88 -28zM865 1279q-51 0 -88.5 28.5t-37.5 77.5q0 50 37.5 78t88.5 28t89 -28t38 -78t-38 -78t-89 -28zM379 1626v94h553v-94h-553z" />
    <glyph glyph-name="uni0231" unicode="&#x231;" horiz-adv-x="1310" 
d="M655 -20q-164 0 -289.5 71t-196 195.5t-70.5 285.5q0 160 70.5 283.5t196 193t289.5 69.5t289.5 -69.5t196 -193t70.5 -283.5q0 -161 -70.5 -285.5t-196 -195.5t-289.5 -71zM655 166q150 0 244 100t94 266q0 165 -94 262.5t-244 97.5t-244 -97.5t-94 -262.5
q0 -166 94 -266t244 -100zM657 1281q-55 0 -96 30.5t-41 83.5q0 54 41 84t96 30t95.5 -30t40.5 -84t-40.5 -84t-95.5 -30zM379 1642v94h553v-94h-553z" />
    <glyph glyph-name="uni1ECD" unicode="&#x1ecd;" horiz-adv-x="1310" 
d="M655 -20q-164 0 -289.5 71t-196 195.5t-70.5 285.5q0 160 70.5 283.5t196 193t289.5 69.5t289.5 -69.5t196 -193t70.5 -283.5q0 -161 -70.5 -285.5t-196 -195.5t-289.5 -71zM655 166q150 0 244 100t94 266q0 165 -94 262.5t-244 97.5t-244 -97.5t-94 -262.5
q0 -166 94 -266t244 -100zM658 -364q-55 0 -96 30.5t-41 83.5t41 83t96 30q54 0 95 -30t41 -83q0 -54 -41 -84t-95 -30z" />
    <glyph glyph-name="ograve" unicode="&#xf2;" horiz-adv-x="1310" 
d="M655 -20q-164 0 -289.5 71t-196 195.5t-70.5 285.5q0 160 70.5 283.5t196 193t289.5 69.5t289.5 -69.5t196 -193t70.5 -283.5q0 -161 -70.5 -285.5t-196 -195.5t-289.5 -71zM655 166q150 0 244 100t94 266q0 165 -94 262.5t-244 97.5t-244 -97.5t-94 -262.5
q0 -166 94 -266t244 -100zM784 1220h-161l-263 253h184z" />
    <glyph glyph-name="uni1ECF" unicode="&#x1ecf;" horiz-adv-x="1310" 
d="M655 -20q-164 0 -289.5 71t-196 195.5t-70.5 285.5q0 160 70.5 283.5t196 193t289.5 69.5t289.5 -69.5t196 -193t70.5 -283.5q0 -161 -70.5 -285.5t-196 -195.5t-289.5 -71zM655 166q150 0 244 100t94 266q0 165 -94 262.5t-244 97.5t-244 -97.5t-94 -262.5
q0 -166 94 -266t244 -100zM458 1502q109 0 195.5 -8.5t136.5 -34.5t50 -81q0 -71 -76 -102t-177 -31l-25 63q34 1 73 7t66 19t27 36q0 38 -72.5 47.5t-197.5 9.5v75z" />
    <glyph glyph-name="ohorn" unicode="&#x1a1;" horiz-adv-x="1304" 
d="M654 -20q-164 0 -289.5 71t-196.5 195.5t-71 285.5q0 160 71 283.5t196.5 193t289.5 69.5q98 0 183.5 -26t153.5 -74q77 11 103 72.5t26 197.5h123q0 -154 -39.5 -238.5t-119.5 -116.5q60 -70 93 -162t33 -199q0 -161 -71 -285.5t-196 -195.5t-289 -71zM654 166
q149 0 243.5 100t94.5 266q0 165 -94.5 262.5t-243.5 97.5q-150 0 -244.5 -97.5t-94.5 -262.5q0 -166 94.5 -266t244.5 -100z" />
    <glyph glyph-name="uni1EDB" unicode="&#x1edb;" horiz-adv-x="1304" 
d="M654 -20q-164 0 -289.5 71t-196.5 195.5t-71 285.5q0 160 71 283.5t196.5 193t289.5 69.5q98 0 183.5 -26t153.5 -74q77 11 103 72.5t26 197.5h123q0 -154 -39.5 -238.5t-119.5 -116.5q60 -70 93 -162t33 -199q0 -161 -71 -285.5t-196 -195.5t-289 -71zM654 166
q149 0 243.5 100t94.5 266q0 165 -94.5 262.5t-243.5 97.5q-150 0 -244.5 -97.5t-94.5 -262.5q0 -166 94.5 -266t244.5 -100zM520 1222l239 253h184l-263 -253h-160z" />
    <glyph glyph-name="uni1EE3" unicode="&#x1ee3;" horiz-adv-x="1304" 
d="M654 -20q-164 0 -289.5 71t-196.5 195.5t-71 285.5q0 160 71 283.5t196.5 193t289.5 69.5q98 0 183.5 -26t153.5 -74q77 11 103 72.5t26 197.5h123q0 -154 -39.5 -238.5t-119.5 -116.5q60 -70 93 -162t33 -199q0 -161 -71 -285.5t-196 -195.5t-289 -71zM654 166
q149 0 243.5 100t94.5 266q0 165 -94.5 262.5t-243.5 97.5q-150 0 -244.5 -97.5t-94.5 -262.5q0 -166 94.5 -266t244.5 -100zM656 -364q-55 0 -96 30.5t-41 83.5t41 83t96 30q54 0 95 -30t41 -83q0 -54 -41 -84t-95 -30z" />
    <glyph glyph-name="uni1EDD" unicode="&#x1edd;" horiz-adv-x="1304" 
d="M654 -20q-164 0 -289.5 71t-196.5 195.5t-71 285.5q0 160 71 283.5t196.5 193t289.5 69.5q98 0 183.5 -26t153.5 -74q77 11 103 72.5t26 197.5h123q0 -154 -39.5 -238.5t-119.5 -116.5q60 -70 93 -162t33 -199q0 -161 -71 -285.5t-196 -195.5t-289 -71zM654 166
q149 0 243.5 100t94.5 266q0 165 -94.5 262.5t-243.5 97.5q-150 0 -244.5 -97.5t-94.5 -262.5q0 -166 94.5 -266t244.5 -100zM783 1220h-161l-263 253h184z" />
    <glyph glyph-name="uni1EDF" unicode="&#x1edf;" horiz-adv-x="1304" 
d="M654 -20q-164 0 -289.5 71t-196.5 195.5t-71 285.5q0 160 71 283.5t196.5 193t289.5 69.5q98 0 183.5 -26t153.5 -74q77 11 103 72.5t26 197.5h123q0 -154 -39.5 -238.5t-119.5 -116.5q60 -70 93 -162t33 -199q0 -161 -71 -285.5t-196 -195.5t-289 -71zM654 166
q149 0 243.5 100t94.5 266q0 165 -94.5 262.5t-243.5 97.5q-150 0 -244.5 -97.5t-94.5 -262.5q0 -166 94.5 -266t244.5 -100zM456 1502q109 0 195.5 -8.5t136.5 -34.5t50 -81q0 -71 -76 -102t-177 -31l-25 63q34 1 73 7t66 19t27 36q0 38 -72.5 47.5t-197.5 9.5v75z" />
    <glyph glyph-name="uni1EE1" unicode="&#x1ee1;" horiz-adv-x="1304" 
d="M654 -20q-164 0 -289.5 71t-196.5 195.5t-71 285.5q0 160 71 283.5t196.5 193t289.5 69.5q98 0 183.5 -26t153.5 -74q77 11 103 72.5t26 197.5h123q0 -154 -39.5 -238.5t-119.5 -116.5q60 -70 93 -162t33 -199q0 -161 -71 -285.5t-196 -195.5t-289 -71zM654 166
q149 0 243.5 100t94.5 266q0 165 -94.5 262.5t-243.5 97.5q-150 0 -244.5 -97.5t-94.5 -262.5q0 -166 94.5 -266t244.5 -100zM956 1453q-1 -37 -19 -80t-56 -73t-100 -30q-47 0 -81.5 19.5t-58.5 38.5q-22 17 -45.5 31t-54.5 14q-39 0 -54 -24.5t-17 -53.5h-119
q2 39 22.5 82t61 73t101.5 30q47 0 80 -18.5t56 -36.5q23 -19 47.5 -34t51.5 -15q38 0 51.5 23t14.5 54h119z" />
    <glyph glyph-name="ohungarumlaut" unicode="&#x151;" horiz-adv-x="1310" 
d="M655 -20q-164 0 -289.5 71t-196 195.5t-70.5 285.5q0 160 70.5 283.5t196 193t289.5 69.5t289.5 -69.5t196 -193t70.5 -283.5q0 -161 -70.5 -285.5t-196 -195.5t-289.5 -71zM655 166q150 0 244 100t94 266q0 165 -94 262.5t-244 97.5t-244 -97.5t-94 -262.5
q0 -166 94 -266t244 -100zM424 1222l157 253h151l-188 -253h-120zM744 1222l166 253h152l-198 -253h-120z" />
    <glyph glyph-name="uni020F" unicode="&#x20f;" horiz-adv-x="1310" 
d="M655 -20q-164 0 -289.5 71t-196 195.5t-70.5 285.5q0 160 70.5 283.5t196 193t289.5 69.5t289.5 -69.5t196 -193t70.5 -283.5q0 -161 -70.5 -285.5t-196 -195.5t-289.5 -71zM655 166q150 0 244 100t94 266q0 165 -94 262.5t-244 97.5t-244 -97.5t-94 -262.5
q0 -166 94 -266t244 -100zM399 1270q0 108 73.5 162.5t183.5 54.5t183.5 -54.5t73.5 -162.5h-131q0 61 -34 94.5t-92 33.5q-57 0 -91 -33.5t-34 -94.5h-132z" />
    <glyph glyph-name="omacron" unicode="&#x14d;" horiz-adv-x="1310" 
d="M655 -20q-164 0 -289.5 71t-196 195.5t-70.5 285.5q0 160 70.5 283.5t196 193t289.5 69.5t289.5 -69.5t196 -193t70.5 -283.5q0 -161 -70.5 -285.5t-196 -195.5t-289.5 -71zM655 166q150 0 244 100t94 266q0 165 -94 262.5t-244 97.5t-244 -97.5t-94 -262.5
q0 -166 94 -266t244 -100zM379 1308v94h553v-94h-553z" />
    <glyph glyph-name="uni1E53" unicode="&#x1e53;" horiz-adv-x="1310" 
d="M655 -20q-164 0 -289.5 71t-196 195.5t-70.5 285.5q0 160 70.5 283.5t196 193t289.5 69.5t289.5 -69.5t196 -193t70.5 -283.5q0 -161 -70.5 -285.5t-196 -195.5t-289.5 -71zM655 166q150 0 244 100t94 266q0 165 -94 262.5t-244 97.5t-244 -97.5t-94 -262.5
q0 -166 94 -266t244 -100zM379 1308v94h553v-94h-553zM522 1562l239 253h184l-263 -253h-160z" />
    <glyph glyph-name="uni1E51" unicode="&#x1e51;" horiz-adv-x="1310" 
d="M655 -20q-164 0 -289.5 71t-196 195.5t-70.5 285.5q0 160 70.5 283.5t196 193t289.5 69.5t289.5 -69.5t196 -193t70.5 -283.5q0 -161 -70.5 -285.5t-196 -195.5t-289.5 -71zM655 166q150 0 244 100t94 266q0 165 -94 262.5t-244 97.5t-244 -97.5t-94 -262.5
q0 -166 94 -266t244 -100zM379 1308v94h553v-94h-553zM784 1560h-161l-263 253h184z" />
    <glyph glyph-name="uni01EB" unicode="&#x1eb;" horiz-adv-x="1307" 
d="M655 -20q-164 0 -289.5 71t-196 195.5t-70.5 285.5q0 160 70.5 283.5t196 193t289.5 69.5t289.5 -69.5t196 -193t70.5 -283.5q0 -184 -92.5 -320.5t-249.5 -194.5q-34 -31 -75 -75.5t-71 -91t-30 -81.5q0 -43 28 -60.5t72 -17.5q19 0 41 2t39 5v-109q-20 -3 -44.5 -5
t-48.5 -2q-87 0 -149 37t-62 121q0 63 45 128.5t97 113.5q-28 -2 -56 -2zM655 166q150 0 244 100t94 266q0 165 -94 262.5t-244 97.5t-244 -97.5t-94 -262.5q0 -166 94 -266t244 -100z" />
    <glyph glyph-name="oslash" unicode="&#xf8;" horiz-adv-x="1310" 
d="M655 -20q-145 0 -264 58l-59 -90l-100 69l57 86q-89 74 -139.5 184.5t-50.5 244.5q0 160 70.5 283t196 193t289.5 70q136 0 249 -50l56 84l100 -69l-51 -77q95 -72 148.5 -184t53.5 -250q0 -161 -70.5 -285.5t-196 -195.5t-289.5 -71zM317 532q0 -79 22.5 -144.5
t63.5 -112.5l393 590q-64 27 -141 27q-150 0 -244 -97.5t-94 -262.5zM655 166q150 0 244 100t94 266q0 83 -25.5 150.5t-71.5 114.5l-397 -597q70 -34 156 -34z" />
    <glyph glyph-name="oslashacute" unicode="&#x1ff;" horiz-adv-x="1310" 
d="M655 -20q-145 0 -264 58l-59 -90l-100 69l57 86q-89 74 -139.5 184.5t-50.5 244.5q0 160 70.5 283t196 193t289.5 70q136 0 249 -50l56 84l100 -69l-51 -77q95 -72 148.5 -184t53.5 -250q0 -161 -70.5 -285.5t-196 -195.5t-289.5 -71zM317 532q0 -79 22.5 -144.5
t63.5 -112.5l393 590q-64 27 -141 27q-150 0 -244 -97.5t-94 -262.5zM655 166q150 0 244 100t94 266q0 83 -25.5 150.5t-71.5 114.5l-397 -597q70 -34 156 -34zM513 1222l239 253h184l-263 -253h-160z" />
    <glyph glyph-name="otilde" unicode="&#xf5;" horiz-adv-x="1310" 
d="M655 -20q-164 0 -289.5 71t-196 195.5t-70.5 285.5q0 160 70.5 283.5t196 193t289.5 69.5t289.5 -69.5t196 -193t70.5 -283.5q0 -161 -70.5 -285.5t-196 -195.5t-289.5 -71zM655 166q150 0 244 100t94 266q0 165 -94 262.5t-244 97.5t-244 -97.5t-94 -262.5
q0 -166 94 -266t244 -100zM958 1453q-1 -37 -19 -80t-56 -73t-100 -30q-47 0 -81.5 19.5t-58.5 38.5q-22 17 -45.5 31t-54.5 14q-39 0 -54 -24.5t-17 -53.5h-119q2 39 22.5 82t61 73t101.5 30q47 0 80 -18.5t56 -36.5q23 -19 47.5 -34t51.5 -15q38 0 51.5 23t14.5 54h119z
" />
    <glyph glyph-name="uni1E4D" unicode="&#x1e4d;" horiz-adv-x="1310" 
d="M655 -20q-164 0 -289.5 71t-196 195.5t-70.5 285.5q0 160 70.5 283.5t196 193t289.5 69.5t289.5 -69.5t196 -193t70.5 -283.5q0 -161 -70.5 -285.5t-196 -195.5t-289.5 -71zM655 166q150 0 244 100t94 266q0 165 -94 262.5t-244 97.5t-244 -97.5t-94 -262.5
q0 -166 94 -266t244 -100zM958 1453q-1 -37 -19 -80t-56 -73t-100 -30q-47 0 -81.5 19.5t-58.5 38.5q-22 17 -45.5 31t-54.5 14q-39 0 -54 -24.5t-17 -53.5h-119q2 39 22.5 82t61 73t101.5 30q47 0 80 -18.5t56 -36.5q23 -19 47.5 -34t51.5 -15q38 0 51.5 23t14.5 54h119z
M518 1559l279 190h194l-297 -190h-176z" />
    <glyph glyph-name="uni1E4F" unicode="&#x1e4f;" horiz-adv-x="1310" 
d="M655 -20q-164 0 -289.5 71t-196 195.5t-70.5 285.5q0 160 70.5 283.5t196 193t289.5 69.5t289.5 -69.5t196 -193t70.5 -283.5q0 -161 -70.5 -285.5t-196 -195.5t-289.5 -71zM655 166q150 0 244 100t94 266q0 165 -94 262.5t-244 97.5t-244 -97.5t-94 -262.5
q0 -166 94 -266t244 -100zM958 1453q-1 -37 -19 -80t-56 -73t-100 -30q-47 0 -81.5 19.5t-58.5 38.5q-22 17 -45.5 31t-54.5 14q-39 0 -54 -24.5t-17 -53.5h-119q2 39 22.5 82t61 73t101.5 30q47 0 80 -18.5t56 -36.5q23 -19 47.5 -34t51.5 -15q38 0 51.5 23t14.5 54h119z
M447 1561q-51 0 -89 28.5t-38 77.5q0 50 38 78t89 28q50 0 88 -28t38 -78t-38 -78t-88 -28zM867 1561q-51 0 -88.5 28.5t-37.5 77.5q0 50 37.5 78t88.5 28t89 -28t38 -78t-38 -78t-89 -28z" />
    <glyph glyph-name="uni022D" unicode="&#x22d;" horiz-adv-x="1310" 
d="M655 -20q-164 0 -289.5 71t-196 195.5t-70.5 285.5q0 160 70.5 283.5t196 193t289.5 69.5t289.5 -69.5t196 -193t70.5 -283.5q0 -161 -70.5 -285.5t-196 -195.5t-289.5 -71zM655 166q150 0 244 100t94 266q0 165 -94 262.5t-244 97.5t-244 -97.5t-94 -262.5
q0 -166 94 -266t244 -100zM958 1453q-1 -37 -19 -80t-56 -73t-100 -30q-47 0 -81.5 19.5t-58.5 38.5q-22 17 -45.5 31t-54.5 14q-39 0 -54 -24.5t-17 -53.5h-119q2 39 22.5 82t61 73t101.5 30q47 0 80 -18.5t56 -36.5q23 -19 47.5 -34t51.5 -15q38 0 51.5 23t14.5 54h119z
M379 1616v94h553v-94h-553z" />
    <glyph glyph-name="oe" unicode="&#x153;" horiz-adv-x="2192" 
d="M655 -20q-164 0 -289.5 71t-196 195.5t-70.5 285.5q0 160 70.5 283.5t196 193t289.5 69.5q144 0 259.5 -55.5t188.5 -153.5q73 99 189 154.5t260 55.5q166 0 287.5 -70t187.5 -193t66 -283q0 -18 -1 -43.5t-3 -34.5h-879q19 -143 106.5 -219t240.5 -76q107 0 172.5 27
t97 67t35.5 80h216q-8 -86 -70 -168t-177 -135t-280 -53q-146 0 -261.5 56.5t-188.5 155.5q-72 -98 -187 -154t-259 -56zM1214 624h651v11q-3 107 -83.5 185.5t-227.5 78.5q-143 0 -231 -74t-109 -201zM655 166q150 0 244.5 100t94.5 266q0 165 -94.5 262.5t-244.5 97.5
t-244.5 -97.5t-94.5 -262.5q0 -166 94.5 -266t244.5 -100z" />
    <glyph glyph-name="p" unicode="p" horiz-adv-x="1283" 
d="M142 -437v1499h217v-131q65 70 154.5 109t187.5 39q129 0 239 -63.5t177.5 -185.5t67.5 -297q0 -180 -66 -303.5t-176 -187t-242 -63.5q-98 0 -187.5 40.5t-154.5 112.5v-569h-217zM360 465q0 -82 42 -147.5t110.5 -103.5t146.5 -38q128 0 215.5 87.5t87.5 269.5
q0 183 -87.5 269.5t-215.5 86.5q-78 0 -146 -37.5t-110.5 -102.5t-42.5 -147h-1v-127h1v-10z" />
    <glyph glyph-name="thorn" unicode="&#xfe;" horiz-adv-x="1283" 
d="M142 -437v2000h217v-631q65 69 154 108t187 39q129 0 239.5 -63.5t177.5 -185.5t67 -297q0 -180 -66 -303.5t-176 -187t-242 -63.5q-98 0 -187 40.5t-154 111.5v-568h-217zM658 889q-77 0 -145.5 -37.5t-111 -102.5t-42.5 -147v-137q0 -82 42.5 -147.5t110.5 -103.5
t146 -38q128 0 215.5 87.5t87.5 269.5q0 183 -87 269.5t-216 86.5z" />
    <glyph glyph-name="q" unicode="q" horiz-adv-x="1276" 
d="M582 -21q-131 0 -241 63.5t-176 187t-66 303.5q0 175 67 297t177 185.5t239 63.5q99 0 187.5 -38.5t153.5 -108.5v130h217v-1499h-217v567q-63 -70 -151 -110.5t-190 -40.5zM625 176q80 0 148 38.5t109 105.5t41 153v129q0 82 -42.5 147t-110.5 102.5t-145 37.5
q-129 0 -216 -86.5t-87 -269.5q0 -182 87.5 -269.5t215.5 -87.5z" />
    <glyph glyph-name="r" unicode="r" horiz-adv-x="843" 
d="M142 0v1062h217v-141q43 70 117 114t183 44q64 0 103.5 -10t48.5 -16l-46 -204q-10 7 -40.5 18t-84.5 11q-109 0 -170.5 -50t-86 -124.5t-24.5 -149.5v-554h-217z" />
    <glyph glyph-name="racute" unicode="&#x155;" horiz-adv-x="843" 
d="M142 0v1062h217v-141q43 70 117 114t183 44q64 0 103.5 -10t48.5 -16l-46 -204q-10 7 -40.5 18t-84.5 11q-109 0 -170.5 -50t-86 -124.5t-24.5 -149.5v-554h-217zM382 1222l239 253h184l-263 -253h-160z" />
    <glyph glyph-name="rcaron" unicode="&#x159;" horiz-adv-x="843" 
d="M142 0v1062h217v-141q43 70 117 114t183 44q64 0 103.5 -10t48.5 -16l-46 -204q-10 7 -40.5 18t-84.5 11q-109 0 -170.5 -50t-86 -124.5t-24.5 -149.5v-554h-217zM220 1475h146l149 -175l148 175h148l-221 -253h-150z" />
    <glyph glyph-name="uni0157" unicode="&#x157;" horiz-adv-x="843" 
d="M142 0v1062h217v-141q43 70 117 114t183 44q64 0 103.5 -10t48.5 -16l-46 -204q-10 7 -40.5 18t-84.5 11q-109 0 -170.5 -50t-86 -124.5t-24.5 -149.5v-554h-217zM232 -251q-38 0 -62.5 22t-24.5 58q0 42 32 63.5t72 21.5q37 0 72.5 -24t35.5 -82q0 -69 -27 -119
t-66.5 -82.5t-77.5 -50.5l-16 40q43 18 85.5 64t42.5 116q-6 -12 -25.5 -19.5t-40.5 -7.5z" />
    <glyph glyph-name="uni0211" unicode="&#x211;" horiz-adv-x="843" 
d="M142 0v1062h217v-141q43 70 117 114t183 44q64 0 103.5 -10t48.5 -16l-46 -204q-10 7 -40.5 18t-84.5 11q-109 0 -170.5 -50t-86 -124.5t-24.5 -149.5v-554h-217zM752 1222h-124l-183 253h151zM437 1222h-125l-198 253h152z" />
    <glyph glyph-name="uni1E5B" unicode="&#x1e5b;" horiz-adv-x="843" 
d="M142 0v1062h217v-141q43 70 117 114t183 44q64 0 103.5 -10t48.5 -16l-46 -204q-10 7 -40.5 18t-84.5 11q-109 0 -170.5 -50t-86 -124.5t-24.5 -149.5v-554h-217zM253 -364q-55 0 -96 30.5t-41 83.5t41 83t96 30q54 0 95 -30t41 -83q0 -54 -41 -84t-95 -30z" />
    <glyph glyph-name="uni0213" unicode="&#x213;" horiz-adv-x="843" 
d="M142 0v1062h217v-141q43 70 117 114t183 44q64 0 103.5 -10t48.5 -16l-46 -204q-10 7 -40.5 18t-84.5 11q-109 0 -170.5 -50t-86 -124.5t-24.5 -149.5v-554h-217zM259 1270q0 108 73.5 162.5t183.5 54.5t183.5 -54.5t73.5 -162.5h-131q0 61 -34 94.5t-92 33.5
q-57 0 -91 -33.5t-34 -94.5h-132z" />
    <glyph glyph-name="uni1E5F" unicode="&#x1e5f;" horiz-adv-x="843" 
d="M142 0v1062h217v-141q43 70 117 114t183 44q64 0 103.5 -10t48.5 -16l-46 -204q-10 7 -40.5 18t-84.5 11q-109 0 -170.5 -50t-86 -124.5t-24.5 -149.5v-554h-217zM-9 -274v95h519v-95h-519z" />
    <glyph glyph-name="s" unicode="s" horiz-adv-x="1124" 
d="M560 -21q-127 0 -231.5 36.5t-167 108.5t-62.5 177v27h216v-20q0 -73 67 -110.5t184 -37.5q102 0 175 31.5t73 99.5q0 72 -71.5 103.5t-216.5 55.5q-105 18 -199 53t-153.5 98t-59.5 166q0 100 60 170t161.5 106t225.5 36q119 0 220.5 -38t163.5 -111.5t62 -177.5v-18
h-215v14q0 52 -33 85.5t-85.5 49.5t-111.5 16q-54 0 -108.5 -11.5t-90.5 -39t-36 -74.5q0 -71 77.5 -102.5t205.5 -54.5q104 -18 199 -51.5t156 -96t61 -169.5q0 -110 -65.5 -181t-171.5 -105.5t-229 -34.5z" />
    <glyph glyph-name="sacute" unicode="&#x15b;" horiz-adv-x="1124" 
d="M560 -21q-127 0 -231.5 36.5t-167 108.5t-62.5 177v27h216v-20q0 -73 67 -110.5t184 -37.5q102 0 175 31.5t73 99.5q0 72 -71.5 103.5t-216.5 55.5q-105 18 -199 53t-153.5 98t-59.5 166q0 100 60 170t161.5 106t225.5 36q119 0 220.5 -38t163.5 -111.5t62 -177.5v-18
h-215v14q0 52 -33 85.5t-85.5 49.5t-111.5 16q-54 0 -108.5 -11.5t-90.5 -39t-36 -74.5q0 -71 77.5 -102.5t205.5 -54.5q104 -18 199 -51.5t156 -96t61 -169.5q0 -110 -65.5 -181t-171.5 -105.5t-229 -34.5zM428 1222l239 253h184l-263 -253h-160z" />
    <glyph glyph-name="uni1E65" unicode="&#x1e65;" horiz-adv-x="1124" 
d="M560 -21q-127 0 -231.5 36.5t-167 108.5t-62.5 177v27h216v-20q0 -73 67 -110.5t184 -37.5q102 0 175 31.5t73 99.5q0 72 -71.5 103.5t-216.5 55.5q-105 18 -199 53t-153.5 98t-59.5 166q0 100 60 170t161.5 106t225.5 36q119 0 220.5 -38t163.5 -111.5t62 -177.5v-18
h-215v14q0 52 -33 85.5t-85.5 49.5t-111.5 16q-54 0 -108.5 -11.5t-90.5 -39t-36 -74.5q0 -71 77.5 -102.5t205.5 -54.5q104 -18 199 -51.5t156 -96t61 -169.5q0 -110 -65.5 -181t-171.5 -105.5t-229 -34.5zM428 1222l239 253h184l-263 -253h-160zM596 1604q-55 0 -96 30.5
t-41 83.5q0 54 41 84t96 30t95.5 -30t40.5 -84t-40.5 -84t-95.5 -30z" />
    <glyph glyph-name="scaron" unicode="&#x161;" horiz-adv-x="1124" 
d="M560 -21q-127 0 -231.5 36.5t-167 108.5t-62.5 177v27h216v-20q0 -73 67 -110.5t184 -37.5q102 0 175 31.5t73 99.5q0 72 -71.5 103.5t-216.5 55.5q-105 18 -199 53t-153.5 98t-59.5 166q0 100 60 170t161.5 106t225.5 36q119 0 220.5 -38t163.5 -111.5t62 -177.5v-18
h-215v14q0 52 -33 85.5t-85.5 49.5t-111.5 16q-54 0 -108.5 -11.5t-90.5 -39t-36 -74.5q0 -71 77.5 -102.5t205.5 -54.5q104 -18 199 -51.5t156 -96t61 -169.5q0 -110 -65.5 -181t-171.5 -105.5t-229 -34.5zM267 1475h146l149 -175l148 175h148l-221 -253h-150z" />
    <glyph glyph-name="uni1E67" unicode="&#x1e67;" horiz-adv-x="1124" 
d="M560 -21q-127 0 -231.5 36.5t-167 108.5t-62.5 177v27h216v-20q0 -73 67 -110.5t184 -37.5q102 0 175 31.5t73 99.5q0 72 -71.5 103.5t-216.5 55.5q-105 18 -199 53t-153.5 98t-59.5 166q0 100 60 170t161.5 106t225.5 36q119 0 220.5 -38t163.5 -111.5t62 -177.5v-18
h-215v14q0 52 -33 85.5t-85.5 49.5t-111.5 16q-54 0 -108.5 -11.5t-90.5 -39t-36 -74.5q0 -71 77.5 -102.5t205.5 -54.5q104 -18 199 -51.5t156 -96t61 -169.5q0 -110 -65.5 -181t-171.5 -105.5t-229 -34.5zM267 1475h146l149 -175l148 175h148l-221 -253h-150zM565 1568
q-55 0 -96 30.5t-41 83.5q0 54 41 84t96 30t95.5 -30t40.5 -84t-40.5 -84t-95.5 -30z" />
    <glyph glyph-name="scedilla" unicode="&#x15f;" horiz-adv-x="1122" 
d="M657 -106q51 0 96.5 -35.5t45.5 -112.5q0 -63 -35.5 -103t-92.5 -60t-120 -20q-59 0 -112 14t-73 28l45 85q15 -10 56 -25t92 -15q59 0 99 26t40 74q0 39 -21.5 57t-53.5 18q-25 0 -51.5 -10t-39.5 -27l-90 26l68 166q-116 7 -209 46t-147.5 108t-54.5 167v27h216v-20
q0 -73 67 -110.5t184 -37.5q102 0 175 31.5t73 99.5q0 72 -71.5 103.5t-216.5 55.5q-105 18 -199 53t-153.5 98t-59.5 166q0 100 60 170t161.5 106t225.5 36q119 0 220.5 -38t163.5 -111.5t62 -177.5v-18h-215v14q0 52 -33 85.5t-85.5 49.5t-111.5 16q-54 0 -108.5 -11.5
t-90.5 -39t-36 -74.5q0 -71 77.5 -102.5t205.5 -54.5q104 -18 199 -51.5t156 -96t61 -169.5q0 -102 -56.5 -170.5t-150.5 -105.5t-205 -44l-43 -105q40 19 86 19z" />
    </font>
</defs>
</svg>
